  0
SECTION
  2
HEADER
  9
$ACADVER
  1
AC1009
  9
$INSBASE
 10
210.0
 20
0.0
 30
0.0
  9
$EXTMIN
 10
0.0
 20
0.0
 30
0.0
  9
$EXTMAX
 10
457.125
 20
647.25
 30
0.0
  9
$LIMMIN
 10
0.0
 20
0.0
  9
$LIMMAX
 10
420.0
 20
297.0
  9
$ORTHOMODE
 70
     0
  9
$REGENMODE
 70
     1
  9
$FILLMODE
 70
     1
  9
$QTEXTMODE
 70
     0
  9
$MIRRTEXT
 70
     1
  9
$DRAGMODE
 70
     2
  9
$LTSCALE
 40
10.0
  9
$OSMODE
 70
    37
  9
$ATTMODE
 70
     1
  9
$TEXTSIZE
 40
3.0
  9
$TRACEWID
 40
0.05
  9
$TEXTSTYLE
  7
STANDARD
  9
$CLAYER
  8
0
  9
$CELTYPE
  6
BYLAYER
  9
$CECOLOR
 62
   256
  9
$DIMSCALE
 40
1.0
  9
$DIMASZ
 40
3.0
  9
$DIMEXO
 40
0.0625
  9
$DIMDLI
 40
8.0
  9
$DIMRND
 40
0.0
  9
$DIMDLE
 40
0.0
  9
$DIMEXE
 40
0.18
  9
$DIMTP
 40
0.0
  9
$DIMTM
 40
0.0
  9
$DIMTXT
 40
2.5
  9
$DIMCEN
 40
0.09
  9
$DIMTSZ
 40
0.0
  9
$DIMTOL
 70
     0
  9
$DIMLIM
 70
     0
  9
$DIMTIH
 70
     0
  9
$DIMTOH
 70
     0
  9
$DIMSE1
 70
     0
  9
$DIMSE2
 70
     0
  9
$DIMTAD
 70
     1
  9
$DIMZIN
 70
     8
  9
$DIMBLK
  1

  9
$DIMASO
 70
     1
  9
$DIMSHO
 70
     1
  9
$DIMPOST
  1

  9
$DIMAPOST
  1

  9
$DIMALT
 70
     0
  9
$DIMALTD
 70
     2
  9
$DIMALTF
 40
25.399999999999999
  9
$DIMLFAC
 40
1.0
  9
$DIMTOFL
 70
     0
  9
$DIMTVP
 40
0.0
  9
$DIMTIX
 70
     0
  9
$DIMSOXD
 70
     0
  9
$DIMSAH
 70
     0
  9
$DIMBLK1
  1

  9
$DIMBLK2
  1

  9
$DIMSTYLE
  2
STANDARD
  9
$DIMCLRD
 70
     0
  9
$DIMCLRE
 70
     0
  9
$DIMCLRT
 70
     0
  9
$DIMTFAC
 40
0.072
  9
$DIMGAP
 40
1.0
  9
$LUNITS
 70
     2
  9
$LUPREC
 70
     2
  9
$SKETCHINC
 40
0.1
  9
$FILLETRAD
 40
1.0
  9
$AUNITS
 70
     0
  9
$AUPREC
 70
     0
  9
$MENU
  1
acad
  9
$ELEVATION
 40
0.0
  9
$PELEVATION
 40
0.0
  9
$THICKNESS
 40
0.0
  9
$LIMCHECK
 70
     0
  9
$BLIPMODE
 70
     0
  9
$CHAMFERA
 40
1.0
  9
$CHAMFERB
 40
1.0
  9
$SKPOLY
 70
     0
  9
$TDCREATE
 40
2449646.661620718
  9
$TDUPDATE
 40
2453258.419357222
  9
$TDINDWG
 40
0.3622878704
  9
$TDUSRTIMER
 40
0.3622878704
  9
$USRTIMER
 70
     1
  9
$ANGBASE
 50
0.0
  9
$ANGDIR
 70
     0
  9
$PDMODE
 70
     0
  9
$PDSIZE
 40
0.0
  9
$PLINEWID
 40
0.0
  9
$COORDS
 70
     1
  9
$SPLFRAME
 70
     0
  9
$SPLINETYPE
 70
     6
  9
$SPLINESEGS
 70
     8
  9
$ATTDIA
 70
     0
  9
$ATTREQ
 70
     1
  9
$HANDLING
 70
     1
  9
$HANDSEED
  5
31E
  9
$SURFTAB1
 70
     6
  9
$SURFTAB2
 70
     6
  9
$SURFTYPE
 70
     6
  9
$SURFU
 70
     6
  9
$SURFV
 70
     6
  9
$UCSNAME
  2

  9
$UCSORG
 10
0.0
 20
0.0
 30
0.0
  9
$UCSXDIR
 10
1.0
 20
0.0
 30
0.0
  9
$UCSYDIR
 10
0.0
 20
1.0
 30
0.0
  9
$PUCSNAME
  2

  9
$PUCSORG
 10
0.0
 20
0.0
 30
0.0
  9
$PUCSXDIR
 10
1.0
 20
0.0
 30
0.0
  9
$PUCSYDIR
 10
0.0
 20
1.0
 30
0.0
  9
$USERI1
 70
     0
  9
$USERI2
 70
     0
  9
$USERI3
 70
     0
  9
$USERI4
 70
     0
  9
$USERI5
 70
     0
  9
$USERR1
 40
0.0
  9
$USERR2
 40
0.0
  9
$USERR3
 40
0.0
  9
$USERR4
 40
0.0
  9
$USERR5
 40
0.0
  9
$WORLDVIEW
 70
     1
  9
$SHADEDGE
 70
     3
  9
$SHADEDIF
 70
    70
  9
$TILEMODE
 70
     1
  9
$MAXACTVP
 70
    16
  9
$PLIMCHECK
 70
     0
  9
$PEXTMIN
 10
1.0000000000000000E+020
 20
1.0000000000000000E+020
 30
1.0000000000000000E+020
  9
$PEXTMAX
 10
-1.0000000000000000E+020
 20
-1.0000000000000000E+020
 30
-1.0000000000000000E+020
  9
$PLIMMIN
 10
0.0
 20
0.0
  9
$PLIMMAX
 10
12.0
 20
9.0
  9
$UNITMODE
 70
     0
  9
$VISRETAIN
 70
     0
  9
$PLINEGEN
 70
     0
  9
$PSLTSCALE
 70
     1
  0
ENDSEC
  0
SECTION
  2
TABLES
  0
TABLE
  2
VPORT
 70
     3
  0
VPORT
  2
*ACTIVE
 70
     0
 10
0.0
 20
0.0
 11
1.0
 21
1.0
 12
104.23095861771409
 22
147.1840410733459
 13
0.0
 23
0.0
 14
1.0
 24
1.0
 15
0.0
 25
0.0
 16
0.0
 26
0.0
 36
1.0
 17
0.0
 27
0.0
 37
0.0
 40
306.86531595220413
 41
1.954070981210855
 42
50.0
 43
0.0
 44
0.0
 50
0.0
 51
0.0
 71
     0
 72
   100
 73
     1
 74
     1
 75
     0
 76
     0
 77
     0
 78
     0
  0
ENDTAB
  0
TABLE
  2
LTYPE
 70
     3
  0
LTYPE
  2
CONTINUOUS
 70
     0
  3
Solid line
 72
    65
 73
     0
 40
0.0
  0
LTYPE
  2
CENTER
 70
     0
  3
____ _ ____ _ ____ _ ____ _ ____ _ ____ _ ____
 72
    65
 73
     4
 40
2.0
 49
1.25
 49
-0.25
 49
0.25
 49
-0.25
  0
LTYPE
  2
HIDDEN
 70
     0
  3
__ __ __ __ __ __ __ __ __ __ __ __ __ __ __ __
 72
    65
 73
     2
 40
0.375
 49
0.25
 49
-0.125
  0
ENDTAB
  0
TABLE
  2
LAYER
 70
     5
  0
LAYER
  2
0
 70
     0
 62
     7
  6
CONTINUOUS
  0
LAYER
  2
TRATTEGGIO
 70
     0
 62
    -1
  6
CENTER
  0
LAYER
  2
Q
 70
     0
 62
     2
  6
CONTINUOUS
  0
LAYER
  2
DEFPOINTS
 70
     0
 62
     7
  6
CONTINUOUS
  0
LAYER
  2
TAB
 70
     0
 62
     2
  6
CONTINUOUS
  0
ENDTAB
  0
TABLE
  2
STYLE
 70
     3
  0
STYLE
  2
STANDARD
 70
     0
 40
0.0
 41
1.0
 50
0.0
 71
     0
 42
3.0
  3
txt
  4

  0
STYLE
  2
ROMANS
 70
     0
 40
0.0
 41
1.0
 50
0.0
 71
     0
 42
3.0
  3
romans
  4

  0
STYLE
  2
MONOTXT
 70
     0
 40
0.0
 41
1.0
 50
0.0
 71
     0
 42
1.5
  3
monotxt
  4

  0
ENDTAB
  0
TABLE
  2
VIEW
 70
     0
  0
ENDTAB
  0
TABLE
  2
UCS
 70
     0
  0
ENDTAB
  0
TABLE
  2
APPID
 70
     1
  0
APPID
  2
ACAD
 70
     0
  0
ENDTAB
  0
TABLE
  2
DIMSTYLE
 70
     1
  0
DIMSTYLE
  2
STANDARD
 70
     0
  3

  4

  5

  6

  7

 40
1.0
 41
3.0
 42
0.0625
 43
8.0
 44
0.18
 45
0.0
 46
0.0
 47
0.0
 48
0.0
140
2.5
141
0.09
142
0.0
143
25.399999999999999
144
1.0
145
0.0
146
0.072
147
0.09
 71
     0
 72
     0
 73
     0
 74
     0
 75
     0
 76
     0
 77
     1
 78
     8
170
     0
171
     2
172
     0
173
     0
174
     0
175
     0
176
     0
177
     0
178
     0
  0
ENDTAB
  0
ENDSEC
  0
SECTION
  2
BLOCKS
  0
BLOCK
  8
0
  2
$MODEL_SPACE
 70
     0
 10
0.0
 20
0.0
 30
0.0
  3
$MODEL_SPACE
  1

  0
ENDBLK
  5
6
  8
0
  0
BLOCK
 67
     1
  8
0
  2
$PAPER_SPACE
 70
     0
 10
0.0
 20
0.0
 30
0.0
  3
$PAPER_SPACE
  1

  0
ENDBLK
  5
9
 67
     1
  8
0
  0
BLOCK
  8
0
  2
*D0
 70
     1
 10
0.0
 20
0.0
 30
0.0
  3
*D0
  1

  0
LINE
  5
1E0
  8
0
  6
BYBLOCK
 62
     0
 10
51.254985531364682
 20
211.9185241472305
 30
0.0
 11
51.254985531364682
 21
223.04575657719869
 31
0.0
  0
LINE
  5
1E1
  8
0
  6
BYBLOCK
 62
     0
 10
59.254985531364682
 20
211.9185241472305
 30
0.0
 11
59.254985531364682
 21
223.04575657719869
 31
0.0
  0
LINE
  5
1E2
  8
0
  6
BYBLOCK
 62
     0
 10
54.254985531364682
 20
222.86575657719879
 30
0.0
 11
56.254985531364682
 21
222.86575657719879
 31
0.0
  0
SOLID
  5
1E3
  8
0
  6
BYBLOCK
 62
     0
 10
54.254985531364682
 20
223.36575657719871
 30
0.0
 11
54.254985531364682
 21
222.36575657719871
 31
0.0
 12
51.254985531364682
 22
222.86575657719879
 32
0.0
 13
51.254985531364682
 23
222.86575657719879
 33
0.0
  0
SOLID
  5
1E4
  8
0
  6
BYBLOCK
 62
     0
 10
56.254985531364682
 20
223.36575657719871
 30
0.0
 11
56.254985531364682
 21
222.36575657719871
 31
0.0
 12
59.254985531364682
 22
222.86575657719879
 32
0.0
 13
59.254985531364682
 23
222.86575657719879
 33
0.0
  0
TEXT
  5
1E5
  8
0
  6
BYBLOCK
 62
     0
 10
54.421652198031339
 20
224.11575657719871
 30
0.0
 40
2.5
  1
8
 72
     1
 11
55.254985531364682
 21
225.36575657719871
 31
0.0
 73
     2
  0
POINT
  5
1E6
  8
DEFPOINTS
  6
BYBLOCK
 62
     0
 10
51.254985531364682
 20
211.8560241472305
 30
0.0
  0
POINT
  5
1E7
  8
DEFPOINTS
  6
BYBLOCK
 62
     0
 10
59.254985531364682
 20
211.8560241472305
 30
0.0
  0
POINT
  5
1E8
  8
DEFPOINTS
  6
BYBLOCK
 62
     0
 10
59.254985531364682
 20
222.86575657719879
 30
0.0
  0
ENDBLK
  5
1EA
  8
0
  0
BLOCK
  8
0
  2
*D1
 70
     1
 10
0.0
 20
0.0
 30
0.0
  3
*D1
  1

  0
LINE
  5
1D2
  8
0
  6
BYBLOCK
 62
     0
 10
61.254985531364682
 20
211.9185241472305
 30
0.0
 11
61.254985531364682
 21
223.04575657719869
 31
0.0
  0
LINE
  5
1D3
  8
0
  6
BYBLOCK
 62
     0
 10
69.254985531364682
 20
211.9185241472305
 30
0.0
 11
69.254985531364682
 21
223.04575657719869
 31
0.0
  0
LINE
  5
1D4
  8
0
  6
BYBLOCK
 62
     0
 10
64.254985531364682
 20
222.86575657719879
 30
0.0
 11
66.254985531364682
 21
222.86575657719879
 31
0.0
  0
SOLID
  5
1D5
  8
0
  6
BYBLOCK
 62
     0
 10
64.254985531364682
 20
223.36575657719871
 30
0.0
 11
64.254985531364682
 21
222.36575657719871
 31
0.0
 12
61.254985531364682
 22
222.86575657719879
 32
0.0
 13
61.254985531364682
 23
222.86575657719879
 33
0.0
  0
SOLID
  5
1D6
  8
0
  6
BYBLOCK
 62
     0
 10
66.254985531364682
 20
223.36575657719871
 30
0.0
 11
66.254985531364682
 21
222.36575657719871
 31
0.0
 12
69.254985531364682
 22
222.86575657719879
 32
0.0
 13
69.254985531364682
 23
222.86575657719879
 33
0.0
  0
TEXT
  5
1D7
  8
0
  6
BYBLOCK
 62
     0
 10
64.421652198031353
 20
224.11575657719871
 30
0.0
 40
2.5
  1
8
 72
     1
 11
65.254985531364682
 21
225.36575657719871
 31
0.0
 73
     2
  0
POINT
  5
1D8
  8
DEFPOINTS
  6
BYBLOCK
 62
     0
 10
61.254985531364682
 20
211.8560241472305
 30
0.0
  0
POINT
  5
1D9
  8
DEFPOINTS
  6
BYBLOCK
 62
     0
 10
69.254985531364682
 20
211.8560241472305
 30
0.0
  0
POINT
  5
1DA
  8
DEFPOINTS
  6
BYBLOCK
 62
     0
 10
69.254985531364682
 20
222.86575657719879
 30
0.0
  0
ENDBLK
  5
1DC
  8
0
  0
BLOCK
  8
0
  2
*D2
 70
     1
 10
0.0
 20
0.0
 30
0.0
  3
*D2
  1

  0
LINE
  5
1EE
  8
0
  6
BYBLOCK
 62
     0
 10
71.254985531364682
 20
211.9185241472305
 30
0.0
 11
71.254985531364682
 21
223.04575657719869
 31
0.0
  0
LINE
  5
1EF
  8
0
  6
BYBLOCK
 62
     0
 10
79.254985531364682
 20
211.9185241472305
 30
0.0
 11
79.254985531364682
 21
223.04575657719869
 31
0.0
  0
LINE
  5
1F0
  8
0
  6
BYBLOCK
 62
     0
 10
74.254985531364682
 20
222.86575657719879
 30
0.0
 11
76.254985531364682
 21
222.86575657719879
 31
0.0
  0
SOLID
  5
1F1
  8
0
  6
BYBLOCK
 62
     0
 10
74.254985531364682
 20
223.36575657719871
 30
0.0
 11
74.254985531364682
 21
222.36575657719871
 31
0.0
 12
71.254985531364682
 22
222.86575657719879
 32
0.0
 13
71.254985531364682
 23
222.86575657719879
 33
0.0
  0
SOLID
  5
1F2
  8
0
  6
BYBLOCK
 62
     0
 10
76.254985531364682
 20
223.36575657719871
 30
0.0
 11
76.254985531364682
 21
222.36575657719871
 31
0.0
 12
79.254985531364682
 22
222.86575657719879
 32
0.0
 13
79.254985531364682
 23
222.86575657719879
 33
0.0
  0
TEXT
  5
1F3
  8
0
  6
BYBLOCK
 62
     0
 10
74.421652198031353
 20
224.11575657719871
 30
0.0
 40
2.5
  1
8
 72
     1
 11
75.254985531364682
 21
225.36575657719871
 31
0.0
 73
     2
  0
POINT
  5
1F4
  8
DEFPOINTS
  6
BYBLOCK
 62
     0
 10
71.254985531364682
 20
211.8560241472305
 30
0.0
  0
POINT
  5
1F5
  8
DEFPOINTS
  6
BYBLOCK
 62
     0
 10
79.254985531364682
 20
211.8560241472305
 30
0.0
  0
POINT
  5
1F6
  8
DEFPOINTS
  6
BYBLOCK
 62
     0
 10
79.254985531364682
 20
222.86575657719879
 30
0.0
  0
ENDBLK
  5
1F8
  8
0
  0
BLOCK
  8
0
  2
*D3
 70
     1
 10
0.0
 20
0.0
 30
0.0
  3
*D3
  1

  0
LINE
  5
1C4
  8
0
  6
BYBLOCK
 62
     0
 10
59.254985531364682
 20
211.9185241472305
 30
0.0
 11
59.254985531364682
 21
232.66966075688339
 31
0.0
  0
LINE
  5
1C5
  8
0
  6
BYBLOCK
 62
     0
 10
61.254985531364682
 20
211.9185241472305
 30
0.0
 11
61.254985531364682
 21
232.66966075688339
 31
0.0
  0
LINE
  5
1C6
  8
0
  6
BYBLOCK
 62
     0
 10
56.254985531364682
 20
232.48966075688341
 30
0.0
 11
53.254985531364682
 21
232.48966075688341
 31
0.0
  0
LINE
  5
1C7
  8
0
  6
BYBLOCK
 62
     0
 10
64.254985531364682
 20
232.48966075688341
 30
0.0
 11
67.254985531364682
 21
232.48966075688341
 31
0.0
  0
SOLID
  5
1C8
  8
0
  6
BYBLOCK
 62
     0
 10
56.254985531364682
 20
232.98966075688341
 30
0.0
 11
56.254985531364682
 21
231.98966075688341
 31
0.0
 12
59.254985531364682
 22
232.48966075688341
 32
0.0
 13
59.254985531364682
 23
232.48966075688341
 33
0.0
  0
SOLID
  5
1C9
  8
0
  6
BYBLOCK
 62
     0
 10
64.254985531364682
 20
232.98966075688341
 30
0.0
 11
64.254985531364682
 21
231.98966075688341
 31
0.0
 12
61.254985531364682
 22
232.48966075688341
 32
0.0
 13
61.254985531364682
 23
232.48966075688341
 33
0.0
  0
TEXT
  5
1CA
  8
0
  6
BYBLOCK
 62
     0
 10
66.766840976569853
 20
233.73966075688341
 30
0.0
 40
2.5
  1
2
 72
     1
 11
67.600174309903181
 21
234.98966075688341
 31
0.0
 73
     2
  0
POINT
  5
1CB
  8
DEFPOINTS
  6
BYBLOCK
 62
     0
 10
59.254985531364682
 20
211.8560241472305
 30
0.0
  0
POINT
  5
1CC
  8
DEFPOINTS
  6
BYBLOCK
 62
     0
 10
61.254985531364682
 20
211.8560241472305
 30
0.0
  0
POINT
  5
1CD
  8
DEFPOINTS
  6
BYBLOCK
 62
     0
 10
61.254985531364682
 20
232.48966075688341
 30
0.0
  0
ENDBLK
  5
1CF
  8
0
  0
BLOCK
  8
0
  2
*D4
 70
     1
 10
0.0
 20
0.0
 30
0.0
  3
*D4
  1

  0
LINE
  5
1B6
  8
0
  6
BYBLOCK
 62
     0
 10
69.254985531364682
 20
211.9185241472305
 30
0.0
 11
69.254985531364682
 21
242.3907724575617
 31
0.0
  0
LINE
  5
1B7
  8
0
  6
BYBLOCK
 62
     0
 10
71.254985531364682
 20
211.9185241472305
 30
0.0
 11
71.254985531364682
 21
242.3907724575617
 31
0.0
  0
LINE
  5
1B8
  8
0
  6
BYBLOCK
 62
     0
 10
66.254985531364682
 20
242.21077245756169
 30
0.0
 11
63.254985531364682
 21
242.21077245756169
 31
0.0
  0
LINE
  5
1B9
  8
0
  6
BYBLOCK
 62
     0
 10
74.254985531364682
 20
242.21077245756169
 30
0.0
 11
77.254985531364682
 21
242.21077245756169
 31
0.0
  0
SOLID
  5
1BA
  8
0
  6
BYBLOCK
 62
     0
 10
66.254985531364682
 20
242.71077245756169
 30
0.0
 11
66.254985531364682
 21
241.71077245756169
 31
0.0
 12
69.254985531364682
 22
242.21077245756169
 32
0.0
 13
69.254985531364682
 23
242.21077245756169
 33
0.0
  0
SOLID
  5
1BB
  8
0
  6
BYBLOCK
 62
     0
 10
74.254985531364682
 20
242.71077245756169
 30
0.0
 11
74.254985531364682
 21
241.71077245756169
 31
0.0
 12
71.254985531364682
 22
242.21077245756169
 32
0.0
 13
71.254985531364682
 23
242.21077245756169
 33
0.0
  0
TEXT
  5
1BC
  8
0
  6
BYBLOCK
 62
     0
 10
76.588997788928722
 20
243.46077245756169
 30
0.0
 40
2.5
  1
2
 72
     1
 11
77.422331122262051
 21
244.71077245756169
 31
0.0
 73
     2
  0
POINT
  5
1BD
  8
DEFPOINTS
  6
BYBLOCK
 62
     0
 10
69.254985531364682
 20
211.8560241472305
 30
0.0
  0
POINT
  5
1BE
  8
DEFPOINTS
  6
BYBLOCK
 62
     0
 10
71.254985531364682
 20
211.8560241472305
 30
0.0
  0
POINT
  5
1BF
  8
DEFPOINTS
  6
BYBLOCK
 62
     0
 10
71.254985531364682
 20
242.21077245756169
 30
0.0
  0
ENDBLK
  5
1C1
  8
0
  0
BLOCK
  8
0
  2
*D5
 70
     1
 10
0.0
 20
0.0
 30
0.0
  3
*D5
  1

  0
LINE
  5
140
  8
0
  6
BYBLOCK
 62
     0
 10
79.254985531364682
 20
211.9185241472305
 30
0.0
 11
79.254985531364682
 21
251.23698591493721
 31
0.0
  0
LINE
  5
141
  8
0
  6
BYBLOCK
 62
     0
 10
81.254985531364682
 20
211.9185241472305
 30
0.0
 11
81.254985531364682
 21
251.23698591493721
 31
0.0
  0
LINE
  5
142
  8
0
  6
BYBLOCK
 62
     0
 10
76.254985531364682
 20
251.0569859149372
 30
0.0
 11
73.254985531364682
 21
251.0569859149372
 31
0.0
  0
LINE
  5
143
  8
0
  6
BYBLOCK
 62
     0
 10
84.254985531364696
 20
251.0569859149372
 30
0.0
 11
87.254985531364682
 21
251.0569859149372
 31
0.0
  0
SOLID
  5
144
  8
0
  6
BYBLOCK
 62
     0
 10
76.254985531364682
 20
251.5569859149372
 30
0.0
 11
76.254985531364682
 21
250.5569859149372
 31
0.0
 12
79.254985531364682
 22
251.0569859149372
 32
0.0
 13
79.254985531364682
 23
251.0569859149372
 33
0.0
  0
SOLID
  5
145
  8
0
  6
BYBLOCK
 62
     0
 10
84.254985531364696
 20
251.5569859149372
 30
0.0
 11
84.254985531364696
 21
250.5569859149372
 31
0.0
 12
81.254985531364682
 22
251.0569859149372
 32
0.0
 13
81.254985531364682
 23
251.0569859149372
 33
0.0
  0
TEXT
  5
146
  8
0
  6
BYBLOCK
 62
     0
 10
86.508402841221724
 20
252.3069859149372
 30
0.0
 40
2.5
  1
2
 72
     1
 11
87.341736174555066
 21
253.5569859149372
 31
0.0
 73
     2
  0
POINT
  5
147
  8
DEFPOINTS
  6
BYBLOCK
 62
     0
 10
79.254985531364682
 20
211.8560241472305
 30
0.0
  0
POINT
  5
148
  8
DEFPOINTS
  6
BYBLOCK
 62
     0
 10
81.254985531364682
 20
211.8560241472305
 30
0.0
  0
POINT
  5
149
  8
DEFPOINTS
  6
BYBLOCK
 62
     0
 10
81.254985531364682
 20
251.0569859149372
 30
0.0
  0
ENDBLK
  5
14B
  8
0
  0
BLOCK
  8
0
  2
*D6
 70
     1
 10
0.0
 20
0.0
 30
0.0
  3
*D6
  1

  0
LINE
  5
28B
  8
0
  6
BYBLOCK
 62
     0
 10
87.317485531364667
 20
160.66680121595149
 30
0.0
 11
101.9088899460785
 21
160.66680121595149
 31
0.0
  0
LINE
  5
28C
  8
0
  6
BYBLOCK
 62
     0
 10
87.317485531364667
 20
212.66680121595149
 30
0.0
 11
101.9088899460785
 21
212.66680121595149
 31
0.0
  0
LINE
  5
28D
  8
0
  6
BYBLOCK
 62
     0
 10
101.7288899460785
 20
163.66680121595149
 30
0.0
 11
101.7288899460785
 21
209.66680121595149
 31
0.0
  0
SOLID
  5
28E
  8
0
  6
BYBLOCK
 62
     0
 10
101.2288899460785
 20
163.66680121595149
 30
0.0
 11
102.2288899460785
 21
163.66680121595149
 31
0.0
 12
101.7288899460785
 22
160.66680121595149
 32
0.0
 13
101.7288899460785
 23
160.66680121595149
 33
0.0
  0
SOLID
  5
28F
  8
0
  6
BYBLOCK
 62
     0
 10
101.2288899460785
 20
209.66680121595149
 30
0.0
 11
102.2288899460785
 21
209.66680121595149
 31
0.0
 12
101.7288899460785
 22
212.66680121595149
 32
0.0
 13
101.7288899460785
 23
212.66680121595149
 33
0.0
  0
TEXT
  5
290
  8
0
  6
BYBLOCK
 62
     0
 10
100.4788899460785
 20
184.58346788261809
 30
0.0
 40
2.5
  1
52
 50
90.0
 72
     1
 11
99.228889946078553
 21
186.66680121595149
 31
0.0
 73
     2
  0
POINT
  5
291
  8
DEFPOINTS
  6
BYBLOCK
 62
     0
 10
87.254985531364682
 20
160.66680121595149
 30
0.0
  0
POINT
  5
292
  8
DEFPOINTS
  6
BYBLOCK
 62
     0
 10
87.254985531364682
 20
212.66680121595149
 30
0.0
  0
POINT
  5
293
  8
DEFPOINTS
  6
BYBLOCK
 62
     0
 10
101.7288899460785
 20
212.66680121595149
 30
0.0
  0
ENDBLK
  5
295
  8
0
  0
BLOCK
  8
0
  2
*D7
 70
     1
 10
0.0
 20
0.0
 30
0.0
  3
*D7
  1

  0
LINE
  5
29A
  8
0
  6
BYBLOCK
 62
     0
 10
87.317485531364667
 20
212.66680121595149
 30
0.0
 11
101.9088899460785
 21
212.66680121595149
 31
0.0
  0
LINE
  5
29B
  8
0
  6
BYBLOCK
 62
     0
 10
89.317485531364682
 20
220.66680121595149
 30
0.0
 11
101.9088899460785
 21
220.66680121595149
 31
0.0
  0
LINE
  5
29C
  8
0
  6
BYBLOCK
 62
     0
 10
101.7288899460785
 20
215.66680121595149
 30
0.0
 11
101.7288899460785
 21
217.66680121595149
 31
0.0
  0
SOLID
  5
29D
  8
0
  6
BYBLOCK
 62
     0
 10
101.2288899460785
 20
215.66680121595149
 30
0.0
 11
102.2288899460785
 21
215.66680121595149
 31
0.0
 12
101.7288899460785
 22
212.66680121595149
 32
0.0
 13
101.7288899460785
 23
212.66680121595149
 33
0.0
  0
SOLID
  5
29E
  8
0
  6
BYBLOCK
 62
     0
 10
101.2288899460785
 20
217.66680121595149
 30
0.0
 11
102.2288899460785
 21
217.66680121595149
 31
0.0
 12
101.7288899460785
 22
220.66680121595149
 32
0.0
 13
101.7288899460785
 23
220.66680121595149
 33
0.0
  0
TEXT
  5
29F
  8
0
  6
BYBLOCK
 62
     0
 10
100.4788899460785
 20
215.83346788261809
 30
0.0
 40
2.5
  1
8
 50
90.0
 72
     1
 11
99.228889946078553
 21
216.66680121595149
 31
0.0
 73
     2
  0
POINT
  5
2A0
  8
DEFPOINTS
  6
BYBLOCK
 62
     0
 10
87.254985531364682
 20
212.66680121595149
 30
0.0
  0
POINT
  5
2A1
  8
DEFPOINTS
  6
BYBLOCK
 62
     0
 10
89.254985531364696
 20
220.66680121595149
 30
0.0
  0
POINT
  5
2A2
  8
DEFPOINTS
  6
BYBLOCK
 62
     0
 10
101.7288899460785
 20
220.66680121595149
 30
0.0
  0
ENDBLK
  5
2A4
  8
0
  0
BLOCK
  8
0
  2
*D8
 70
     1
 10
0.0
 20
0.0
 30
0.0
  3
*D8
  1

  0
LINE
  5
266
  8
0
  6
BYBLOCK
 62
     0
 10
87.317485531364667
 20
160.66680121595149
 30
0.0
 11
111.6310567489555
 21
160.66680121595149
 31
0.0
  0
LINE
  5
267
  8
0
  6
BYBLOCK
 62
     0
 10
89.317485531364682
 20
226.66680121595149
 30
0.0
 11
111.6310567489555
 21
226.66680121595149
 31
0.0
  0
LINE
  5
268
  8
0
  6
BYBLOCK
 62
     0
 10
111.45105674895549
 20
163.66680121595149
 30
0.0
 11
111.45105674895549
 21
223.66680121595149
 31
0.0
  0
SOLID
  5
269
  8
0
  6
BYBLOCK
 62
     0
 10
110.95105674895559
 20
163.66680121595149
 30
0.0
 11
111.95105674895549
 21
163.66680121595149
 31
0.0
 12
111.45105674895549
 22
160.66680121595149
 32
0.0
 13
111.45105674895549
 23
160.66680121595149
 33
0.0
  0
SOLID
  5
26A
  8
0
  6
BYBLOCK
 62
     0
 10
110.95105674895559
 20
223.66680121595149
 30
0.0
 11
111.95105674895549
 21
223.66680121595149
 31
0.0
 12
111.45105674895549
 22
226.66680121595149
 32
0.0
 13
111.45105674895549
 23
226.66680121595149
 33
0.0
  0
TEXT
  5
26B
  8
0
  6
BYBLOCK
 62
     0
 10
110.20105674895549
 20
191.58346788261809
 30
0.0
 40
2.5
  1
66
 50
90.0
 72
     1
 11
108.95105674895549
 21
193.66680121595149
 31
0.0
 73
     2
  0
POINT
  5
26C
  8
DEFPOINTS
  6
BYBLOCK
 62
     0
 10
87.254985531364682
 20
160.66680121595149
 30
0.0
  0
POINT
  5
26D
  8
DEFPOINTS
  6
BYBLOCK
 62
     0
 10
89.254985531364696
 20
226.66680121595149
 30
0.0
  0
POINT
  5
26E
  8
DEFPOINTS
  6
BYBLOCK
 62
     0
 10
111.45105674895549
 20
226.66680121595149
 30
0.0
  0
ENDBLK
  5
270
  8
0
  0
BLOCK
  8
0
  2
*D9
 70
     1
 10
0.0
 20
0.0
 30
0.0
  3
*D9
  1

  0
LINE
  5
124
  8
0
  6
BYBLOCK
 62
     0
 10
85.254985531364682
 20
212.60430121595149
 30
0.0
 11
85.254985531364682
 21
206.4054017575879
 31
0.0
  0
LINE
  5
125
  8
0
  6
BYBLOCK
 62
     0
 10
87.254985531364682
 20
212.60430121595149
 30
0.0
 11
87.254985531364682
 21
206.4054017575879
 31
0.0
  0
LINE
  5
126
  8
0
  6
BYBLOCK
 62
     0
 10
82.254985531364682
 20
206.5854017575879
 30
0.0
 11
79.254985531364682
 21
206.5854017575879
 31
0.0
  0
LINE
  5
127
  8
0
  6
BYBLOCK
 62
     0
 10
90.254985531364682
 20
206.5854017575879
 30
0.0
 11
93.254985531364667
 21
206.5854017575879
 31
0.0
  0
LINE
  5
128
  8
0
  6
BYBLOCK
 62
     0
 10
93.254985531364667
 20
206.5854017575879
 30
0.0
 11
95.011652198031342
 21
206.5854017575879
 31
0.0
  0
SOLID
  5
129
  8
0
  6
BYBLOCK
 62
     0
 10
82.254985531364682
 20
207.0854017575879
 30
0.0
 11
82.254985531364682
 21
206.0854017575879
 31
0.0
 12
85.254985531364682
 22
206.5854017575879
 32
0.0
 13
85.254985531364682
 23
206.5854017575879
 33
0.0
  0
SOLID
  5
12A
  8
0
  6
BYBLOCK
 62
     0
 10
90.254985531364682
 20
207.0854017575879
 30
0.0
 11
90.254985531364682
 21
206.0854017575879
 31
0.0
 12
87.254985531364682
 22
206.5854017575879
 32
0.0
 13
87.254985531364682
 23
206.5854017575879
 33
0.0
  0
TEXT
  5
12B
  8
0
  6
BYBLOCK
 62
     0
 10
93.344985531364685
 20
207.8354017575879
 30
0.0
 40
2.5
  1
2
 72
     1
 11
94.178318864698014
 21
209.0854017575879
 31
0.0
 73
     2
  0
POINT
  5
12C
  8
DEFPOINTS
  6
BYBLOCK
 62
     0
 10
85.254985531364682
 20
212.66680121595149
 30
0.0
  0
POINT
  5
12D
  8
DEFPOINTS
  6
BYBLOCK
 62
     0
 10
87.254985531364682
 20
212.66680121595149
 30
0.0
  0
POINT
  5
12E
  8
DEFPOINTS
  6
BYBLOCK
 62
     0
 10
87.254985531364682
 20
206.5854017575879
 30
0.0
  0
ENDBLK
  5
130
  8
0
  0
BLOCK
  8
0
  2
*D10
 70
     1
 10
0.0
 20
0.0
 30
0.0
  3
*D10
  1

  0
LINE
  5
115
  8
0
  6
BYBLOCK
 62
     0
 10
82.254985531364682
 20
160.60430121595149
 30
0.0
 11
82.254985531364682
 21
151.27025666709241
 31
0.0
  0
LINE
  5
116
  8
0
  6
BYBLOCK
 62
     0
 10
87.254985531364682
 20
160.60430121595149
 30
0.0
 11
87.254985531364682
 21
151.27025666709241
 31
0.0
  0
LINE
  5
117
  8
0
  6
BYBLOCK
 62
     0
 10
79.254985531364682
 20
151.45025666709239
 30
0.0
 11
76.254985531364682
 21
151.45025666709239
 31
0.0
  0
LINE
  5
118
  8
0
  6
BYBLOCK
 62
     0
 10
90.254985531364682
 20
151.45025666709239
 30
0.0
 11
93.254985531364667
 21
151.45025666709239
 31
0.0
  0
LINE
  5
119
  8
0
  6
BYBLOCK
 62
     0
 10
93.254985531364667
 20
151.45025666709239
 30
0.0
 11
95.011652198031342
 21
151.45025666709239
 31
0.0
  0
SOLID
  5
11A
  8
0
  6
BYBLOCK
 62
     0
 10
79.254985531364682
 20
151.95025666709239
 30
0.0
 11
79.254985531364682
 21
150.95025666709239
 31
0.0
 12
82.254985531364682
 22
151.45025666709239
 32
0.0
 13
82.254985531364682
 23
151.45025666709239
 33
0.0
  0
SOLID
  5
11B
  8
0
  6
BYBLOCK
 62
     0
 10
90.254985531364682
 20
151.95025666709239
 30
0.0
 11
90.254985531364682
 21
150.95025666709239
 31
0.0
 12
87.254985531364682
 22
151.45025666709239
 32
0.0
 13
87.254985531364682
 23
151.45025666709239
 33
0.0
  0
TEXT
  5
11C
  8
0
  6
BYBLOCK
 62
     0
 10
93.344985531364685
 20
152.70025666709239
 30
0.0
 40
2.5
  1
5
 72
     1
 11
94.178318864698014
 21
153.95025666709239
 31
0.0
 73
     2
  0
POINT
  5
11D
  8
DEFPOINTS
  6
BYBLOCK
 62
     0
 10
82.254985531364682
 20
160.66680121595149
 30
0.0
  0
POINT
  5
11E
  8
DEFPOINTS
  6
BYBLOCK
 62
     0
 10
87.254985531364682
 20
160.66680121595149
 30
0.0
  0
POINT
  5
11F
  8
DEFPOINTS
  6
BYBLOCK
 62
     0
 10
87.254985531364682
 20
151.45025666709239
 30
0.0
  0
ENDBLK
  5
121
  8
0
  0
BLOCK
  8
0
  2
*D11
 70
     1
 10
0.0
 20
0.0
 30
0.0
  3
*D11
  1

  0
LINE
  5
106
  8
0
  6
BYBLOCK
 62
     0
 10
87.254985531364682
 20
160.60430121595149
 30
0.0
 11
87.254985531364682
 21
143.27025666709241
 31
0.0
  0
LINE
  5
107
  8
0
  6
BYBLOCK
 62
     0
 10
89.254985531364696
 20
220.60430121595149
 30
0.0
 11
89.254985531364696
 21
143.27025666709241
 31
0.0
  0
LINE
  5
108
  8
0
  6
BYBLOCK
 62
     0
 10
84.254985531364696
 20
143.45025666709239
 30
0.0
 11
81.254985531364682
 21
143.45025666709239
 31
0.0
  0
LINE
  5
109
  8
0
  6
BYBLOCK
 62
     0
 10
92.254985531364682
 20
143.45025666709239
 30
0.0
 11
95.254985531364682
 21
143.45025666709239
 31
0.0
  0
LINE
  5
10A
  8
0
  6
BYBLOCK
 62
     0
 10
95.254985531364682
 20
143.45025666709239
 30
0.0
 11
97.011652198031356
 21
143.45025666709239
 31
0.0
  0
SOLID
  5
10B
  8
0
  6
BYBLOCK
 62
     0
 10
84.254985531364696
 20
143.95025666709239
 30
0.0
 11
84.254985531364696
 21
142.95025666709239
 31
0.0
 12
87.254985531364682
 22
143.45025666709239
 32
0.0
 13
87.254985531364682
 23
143.45025666709239
 33
0.0
  0
SOLID
  5
10C
  8
0
  6
BYBLOCK
 62
     0
 10
92.254985531364682
 20
143.95025666709239
 30
0.0
 11
92.254985531364682
 21
142.95025666709239
 31
0.0
 12
89.254985531364696
 22
143.45025666709239
 32
0.0
 13
89.254985531364696
 23
143.45025666709239
 33
0.0
  0
TEXT
  5
10D
  8
0
  6
BYBLOCK
 62
     0
 10
95.344985531364685
 20
144.70025666709239
 30
0.0
 40
2.5
  1
2
 72
     1
 11
96.178318864698014
 21
145.95025666709239
 31
0.0
 73
     2
  0
POINT
  5
10E
  8
DEFPOINTS
  6
BYBLOCK
 62
     0
 10
87.254985531364682
 20
160.66680121595149
 30
0.0
  0
POINT
  5
10F
  8
DEFPOINTS
  6
BYBLOCK
 62
     0
 10
89.254985531364696
 20
220.66680121595149
 30
0.0
  0
POINT
  5
110
  8
DEFPOINTS
  6
BYBLOCK
 62
     0
 10
89.254985531364696
 20
143.45025666709239
 30
0.0
  0
ENDBLK
  5
112
  8
0
  0
BLOCK
  8
0
  2
*D12
 70
     1
 10
0.0
 20
0.0
 30
0.0
  3
*D12
  1

  0
LINE
  5
F7
  8
0
  6
BYBLOCK
 62
     0
 10
82.254985531364682
 20
168.19336655096151
 30
0.0
 11
82.254985531364682
 21
178.1212332362438
 31
0.0
  0
ARC
  5
F8
  8
0
  6
BYBLOCK
 62
     0
 10
82.254985531364682
 20
160.66680121595149
 30
0.0
 40
17.274432020292259
 50
70.074125568983419
 51
80.037062784491695
  0
ARC
  5
F9
  8
0
  6
BYBLOCK
 62
     0
 10
82.254985531364682
 20
160.66680121595149
 30
0.0
 40
17.274432020292259
 50
109.96293721550821
 51
119.9258744310165
  0
SOLID
  5
FA
  8
0
  6
BYBLOCK
 62
     0
 10
85.200237269089016
 20
177.18262121324929
 30
0.0
 11
85.287070804237274
 21
178.17884404834879
 31
0.0
 12
82.254985531364682
 22
177.94123323624379
 32
0.0
 13
82.254985531364682
 23
177.94123323624379
 33
0.0
  0
SOLID
  5
FB
  8
0
  6
BYBLOCK
 62
     0
 10
76.228030121774623
 20
177.38628068621321
 30
0.0
 11
76.48653674027527
 21
176.42027119961821
 31
0.0
 12
79.255311890809665
 22
177.6787957984177
 32
0.0
 13
79.255311890809665
 23
177.6787957984177
 33
0.0
  0
TEXT
  5
FC
  8
0
  6
BYBLOCK
 62
     0
 10
79.645671696207145
 20
180.88748577065579
 30
0.0
 40
2.5
  1
10%%d
 72
     1
 11
81.937338362873817
 21
182.13748577065579
 31
0.0
 73
     2
  0
POINT
  5
FD
  8
DEFPOINTS
  6
BYBLOCK
 62
     0
 10
81.809955326792647
 20
177.93549976971391
 30
0.0
  0
POINT
  5
FE
  8
DEFPOINTS
  6
BYBLOCK
 62
     0
 10
82.254985531364682
 20
160.66680121595149
 30
0.0
  0
POINT
  5
FF
  8
DEFPOINTS
  6
BYBLOCK
 62
     0
 10
82.254985531364682
 20
160.66680121595149
 30
0.0
  0
POINT
  5
100
  8
DEFPOINTS
  6
BYBLOCK
 62
     0
 10
82.254985531364682
 20
168.13086655096151
 30
0.0
  0
POINT
  5
101
  8
DEFPOINTS
  6
BYBLOCK
 62
     0
 10
74.9851321217551
 20
201.89618868915619
 30
0.0
  0
ENDBLK
  5
103
  8
0
  0
BLOCK
  8
0
  2
*D13
 70
     1
 10
0.0
 20
0.0
 30
0.0
  3
*D13
  1

  0
LINE
  5
E7
  8
0
  6
BYBLOCK
 62
     0
 10
80.735879440920129
 20
209.49418931451609
 30
0.0
 11
80.735879440920129
 21
219.4460481711686
 31
0.0
  0
ARC
  5
E8
  8
0
  6
BYBLOCK
 62
     0
 10
80.735879440920129
 20
209.43168931451609
 30
0.0
 40
9.8343588566524396
 50
54.906530204489563
 51
72.453265102244771
  0
ARC
  5
E9
  8
0
  6
BYBLOCK
 62
     0
 10
80.735879440920129
 20
209.43168931451609
 30
0.0
 40
9.8343588566524396
 50
152.55129539277539
 51
170.0980302905306
  0
SOLID
  5
EA
  8
0
  6
BYBLOCK
 62
     0
 10
83.624514367311107
 20
218.31431908049521
 30
0.0
 11
83.777040833130044
 21
219.30261846692861
 31
0.0
 12
80.735879440920129
 22
219.26604817116859
 32
0.0
 13
80.735879440920129
 23
219.26604817116859
 33
0.0
  0
SOLID
  5
EB
  8
0
  6
BYBLOCK
 62
     0
 10
71.605268289178014
 20
214.26033767001871
 30
0.0
 11
72.412001022398272
 21
213.66942118086729
 31
0.0
 12
73.781384123242319
 22
216.38507762510369
 32
0.0
 13
73.781384123242319
 23
216.38507762510369
 33
0.0
  0
TEXT
  5
EC
  8
0
  6
BYBLOCK
 62
     0
 10
73.92536787358712
 20
217.8140256405151
 30
0.0
 40
2.5
  1
45%%d
 72
     1
 11
76.842034540253792
 21
219.0640256405151
 31
0.0
 73
     2
  0
POINT
  5
ED
  8
DEFPOINTS
  6
BYBLOCK
 62
     0
 10
78.752773033220635
 20
219.0640256405151
 30
0.0
  0
POINT
  5
EF
  8
DEFPOINTS
  6
BYBLOCK
 62
     0
 10
77.806947252785633
 20
212.36015527921509
 30
0.0
  0
POINT
  5
F0
  8
DEFPOINTS
  6
BYBLOCK
 62
     0
 10
80.735879440920129
 20
205.2890874673497
 30
0.0
  0
POINT
  5
F1
  8
DEFPOINTS
  6
BYBLOCK
 62
     0
 10
80.735879440920129
 20
199.40543879960629
 30
0.0
  0
POINT
  5
F2
  8
DEFPOINTS
  6
BYBLOCK
 62
     0
 10
70.858954989838793
 20
219.3070415702191
 30
0.0
  0
ENDBLK
  5
F4
  8
0
  0
BLOCK
  8
0
  2
*D14
 70
     1
 10
0.0
 20
0.0
 30
0.0
  3
*D14
  1

  0
LINE
  5
178
  8
0
  6
BYBLOCK
 62
     0
 10
51.192485531364682
 20
226.66680121595149
 30
0.0
 11
29.230136762501932
 21
226.66680121595149
 31
0.0
  0
LINE
  5
179
  8
0
  6
BYBLOCK
 62
     0
 10
51.192485531364682
 20
217.66680121595149
 30
0.0
 11
29.230136762501932
 21
217.66680121595149
 31
0.0
  0
LINE
  5
17A
  8
0
  6
BYBLOCK
 62
     0
 10
29.410136762501931
 20
223.66680121595149
 30
0.0
 11
29.410136762501931
 21
220.66680121595149
 31
0.0
  0
SOLID
  5
17B
  8
0
  6
BYBLOCK
 62
     0
 10
28.910136762501931
 20
223.66680121595149
 30
0.0
 11
29.910136762501931
 21
223.66680121595149
 31
0.0
 12
29.410136762501931
 22
226.66680121595149
 32
0.0
 13
29.410136762501931
 23
226.66680121595149
 33
0.0
  0
SOLID
  5
17C
  8
0
  6
BYBLOCK
 62
     0
 10
28.910136762501931
 20
220.66680121595149
 30
0.0
 11
29.910136762501931
 21
220.66680121595149
 31
0.0
 12
29.410136762501931
 22
217.66680121595149
 32
0.0
 13
29.410136762501931
 23
217.66680121595149
 33
0.0
  0
TEXT
  5
17D
  8
0
  6
BYBLOCK
 62
     0
 10
28.160136762501931
 20
221.33346788261821
 30
0.0
 40
2.5
  1
9
 50
90.0
 72
     1
 11
26.910136762501931
 21
222.16680121595149
 31
0.0
 73
     2
  0
POINT
  5
17E
  8
DEFPOINTS
  6
BYBLOCK
 62
     0
 10
51.254985531364682
 20
226.66680121595149
 30
0.0
  0
POINT
  5
17F
  8
DEFPOINTS
  6
BYBLOCK
 62
     0
 10
51.254985531364682
 20
217.66680121595149
 30
0.0
  0
POINT
  5
180
  8
DEFPOINTS
  6
BYBLOCK
 62
     0
 10
29.410136762501931
 20
217.66680121595149
 30
0.0
  0
ENDBLK
  5
182
  8
0
  0
BLOCK
  8
0
  2
*D15
 70
     1
 10
0.0
 20
0.0
 30
0.0
  3
*D15
  1

  0
LINE
  5
168
  8
0
  6
BYBLOCK
 62
     0
 10
51.19834129467484
 20
217.69321485731029
 30
0.0
 11
39.117201787453361
 21
223.32674272876571
 31
0.0
  0
LINE
  5
169
  8
0
  6
BYBLOCK
 62
     0
 10
51.192485531364639
 20
217.66680121595149
 30
0.0
 11
37.86242296319142
 21
217.66680121595149
 31
0.0
  0
ARC
  5
16A
  8
0
  6
BYBLOCK
 62
     0
 10
51.254985531364639
 20
217.66680121595149
 30
0.0
 40
13.212562568173221
 50
128.92500823412689
 51
141.96250411706509
  0
ARC
  5
16B
  8
0
  6
BYBLOCK
 62
     0
 10
51.254985531364639
 20
217.66680121595149
 30
0.0
 40
13.212562568173221
 50
193.03749588293809
 51
206.0749917658764
  0
SOLID
  5
16C
  8
0
  6
BYBLOCK
 62
     0
 10
41.274904360074878
 20
225.54669012636489
 30
0.0
 11
40.422435209846242
 21
226.06946765831171
 31
0.0
 12
39.280337189119969
 22
223.2506714416524
 32
0.0
 13
39.280337189119969
 23
223.2506714416524
 33
0.0
  0
SOLID
  5
16D
  8
0
  6
BYBLOCK
 62
     0
 10
37.886240535649122
 20
214.62943277446681
 30
0.0
 11
38.879775296538327
 21
214.7429610921009
 31
0.0
 12
38.04242296319142
 22
217.66680121595149
 32
0.0
 13
38.04242296319142
 23
217.66680121595149
 33
0.0
  0
TEXT
  5
16E
  8
0
  6
BYBLOCK
 62
     0
 10
34.970954578940422
 20
219.55628225122069
 30
0.0
 40
2.5
  1
25%%d
 72
     1
 11
37.887621245607093
 21
220.80628225122081
 31
0.0
 73
     2
  0
POINT
  5
16F
  8
DEFPOINTS
  6
BYBLOCK
 62
     0
 10
38.658301653162098
 20
221.6537003732571
 30
0.0
  0
POINT
  5
170
  8
DEFPOINTS
  6
BYBLOCK
 62
     0
 10
51.254985531364682
 20
217.66680121595149
 30
0.0
  0
POINT
  5
171
  8
DEFPOINTS
  6
BYBLOCK
 62
     0
 10
51.254985531364682
 20
217.66680121595149
 30
0.0
  0
POINT
  5
172
  8
DEFPOINTS
  6
BYBLOCK
 62
     0
 10
55.76740529123326
 20
217.66680121595149
 30
0.0
  0
POINT
  5
173
  8
DEFPOINTS
  6
BYBLOCK
 62
     0
 10
69.363237209040008
 20
209.22278478285341
 30
0.0
  0
ENDBLK
  5
175
  8
0
  0
BLOCK
  8
0
  2
*D16
 70
     1
 10
0.0
 20
0.0
 30
0.0
  3
*D16
  1

  0
LINE
  5
221
  8
0
  6
BYBLOCK
 62
     0
 10
157.1049405975514
 20
206.65062502563259
 30
0.0
 11
171.88541414751811
 21
202.69020907416939
 31
0.0
  0
LINE
  5
222
  8
0
  6
BYBLOCK
 62
     0
 10
157.10707023340831
 20
206.66680121595149
 30
0.0
 11
172.40894243487011
 21
206.66680121595149
 31
0.0
  0
ARC
  5
223
  8
0
  6
BYBLOCK
 62
     0
 10
157.04457023340831
 20
206.66680121595149
 30
0.0
 40
15.18437220146183
 50
322.32298243828609
 51
333.66149121914299
  0
ARC
  5
224
  8
0
  6
BYBLOCK
 62
     0
 10
157.04457023340831
 20
206.66680121595149
 30
0.0
 40
15.18437220146183
 50
11.33850878085698
 51
22.677017561713878
  0
SOLID
  5
225
  8
0
  6
BYBLOCK
 62
     0
 10
170.184812244347
 20
200.10638218837209
 30
0.0
 11
171.1204458193705
 21
199.75340936606301
 31
0.0
 12
171.7115474987861
 22
202.73679650228789
 32
0.0
 13
171.7115474987861
 23
202.73679650228789
 33
0.0
  0
SOLID
  5
226
  8
0
  6
BYBLOCK
 62
     0
 10
172.4301394665286
 20
209.70152027287449
 30
0.0
 11
171.4350307436531
 21
209.6027344962815
 31
0.0
 12
172.22894243487011
 22
206.66680121595149
 32
0.0
 13
172.22894243487011
 23
206.66680121595149
 33
0.0
  0
TEXT
  5
227
  8
0
  6
BYBLOCK
 62
     0
 10
171.42285384985561
 20
203.20702499960109
 30
0.0
 40
2.5
  1
15%%d
 72
     1
 11
173.92285384985561
 21
204.4570249996012
 31
0.0
 73
     2
  0
POINT
  5
228
  8
DEFPOINTS
  6
BYBLOCK
 62
     0
 10
172.0819705702236
 20
204.55925518730251
 30
0.0
  0
POINT
  5
229
  8
DEFPOINTS
  6
BYBLOCK
 62
     0
 10
157.04457023340831
 20
206.66680121595149
 30
0.0
  0
POINT
  5
22A
  8
DEFPOINTS
  6
BYBLOCK
 62
     0
 10
157.04457023340831
 20
206.66680121595149
 30
0.0
  0
POINT
  5
22B
  8
DEFPOINTS
  6
BYBLOCK
 62
     0
 10
152.8549627285667
 20
206.66680121595149
 30
0.0
  0
POINT
  5
22C
  8
DEFPOINTS
  6
BYBLOCK
 62
     0
 10
140.04457023340831
 20
211.2219374872806
 30
0.0
  0
ENDBLK
  5
22E
  8
0
  0
BLOCK
  8
0
  2
*D17
 70
     1
 10
0.0
 20
0.0
 30
0.0
  3
*D17
  1

  0
LINE
  5
231
  8
0
  6
BYBLOCK
 62
     0
 10
155.734624272014
 20
160.66680121595141
 30
0.0
 11
180.13686133002449
 21
160.66680121595141
 31
0.0
  0
LINE
  5
232
  8
0
  6
BYBLOCK
 62
     0
 10
157.10707023340831
 20
206.66680121595149
 30
0.0
 11
180.13686133002449
 21
206.66680121595149
 31
0.0
  0
LINE
  5
233
  8
0
  6
BYBLOCK
 62
     0
 10
179.95686133002451
 20
163.66680121595141
 30
0.0
 11
179.95686133002451
 21
203.66680121595149
 31
0.0
  0
SOLID
  5
234
  8
0
  6
BYBLOCK
 62
     0
 10
179.45686133002451
 20
163.66680121595141
 30
0.0
 11
180.45686133002451
 21
163.66680121595141
 31
0.0
 12
179.95686133002451
 22
160.66680121595141
 32
0.0
 13
179.95686133002451
 23
160.66680121595141
 33
0.0
  0
SOLID
  5
235
  8
0
  6
BYBLOCK
 62
     0
 10
179.45686133002451
 20
203.66680121595149
 30
0.0
 11
180.45686133002451
 21
203.66680121595149
 31
0.0
 12
179.95686133002451
 22
206.66680121595149
 32
0.0
 13
179.95686133002451
 23
206.66680121595149
 33
0.0
  0
TEXT
  5
236
  8
0
  6
BYBLOCK
 62
     0
 10
178.70686133002451
 20
181.58346788261809
 30
0.0
 40
2.5
  1
46
 50
90.0
 72
     1
 11
177.45686133002451
 21
183.66680121595141
 31
0.0
 73
     2
  0
POINT
  5
237
  8
DEFPOINTS
  6
BYBLOCK
 62
     0
 10
155.672124272014
 20
160.66680121595141
 30
0.0
  0
POINT
  5
238
  8
DEFPOINTS
  6
BYBLOCK
 62
     0
 10
157.04457023340831
 20
206.66680121595149
 30
0.0
  0
POINT
  5
239
  8
DEFPOINTS
  6
BYBLOCK
 62
     0
 10
179.95686133002451
 20
206.66680121595149
 30
0.0
  0
ENDBLK
  5
23B
  8
0
  0
BLOCK
  8
0
  2
*D18
 70
     1
 10
0.0
 20
0.0
 30
0.0
  3
*D18
  1

  0
LINE
  5
24B
  8
0
  6
BYBLOCK
 62
     0
 10
155.734624272014
 20
160.66680121595141
 30
0.0
 11
171.7506129289508
 21
160.66680121595141
 31
0.0
  0
LINE
  5
24C
  8
0
  6
BYBLOCK
 62
     0
 10
151.10707023340831
 20
170.66680121595141
 30
0.0
 11
171.7506129289508
 21
170.66680121595141
 31
0.0
  0
LINE
  5
24D
  8
0
  6
BYBLOCK
 62
     0
 10
171.57061292895071
 20
163.66680121595141
 30
0.0
 11
171.57061292895071
 21
167.66680121595141
 31
0.0
  0
SOLID
  5
24E
  8
0
  6
BYBLOCK
 62
     0
 10
171.07061292895071
 20
163.66680121595141
 30
0.0
 11
172.07061292895071
 21
163.66680121595141
 31
0.0
 12
171.57061292895071
 22
160.66680121595141
 32
0.0
 13
171.57061292895071
 23
160.66680121595141
 33
0.0
  0
SOLID
  5
24F
  8
0
  6
BYBLOCK
 62
     0
 10
171.07061292895071
 20
167.66680121595141
 30
0.0
 11
172.07061292895071
 21
167.66680121595141
 31
0.0
 12
171.57061292895071
 22
170.66680121595141
 32
0.0
 13
171.57061292895071
 23
170.66680121595141
 33
0.0
  0
TEXT
  5
250
  8
0
  6
BYBLOCK
 62
     0
 10
170.32061292895071
 20
164.20846788261809
 30
0.0
 40
2.5
  1
10
 50
90.0
 72
     1
 11
169.07061292895071
 21
165.66680121595141
 31
0.0
 73
     2
  0
POINT
  5
251
  8
DEFPOINTS
  6
BYBLOCK
 62
     0
 10
155.672124272014
 20
160.66680121595141
 30
0.0
  0
POINT
  5
252
  8
DEFPOINTS
  6
BYBLOCK
 62
     0
 10
151.04457023340831
 20
170.66680121595141
 30
0.0
  0
POINT
  5
253
  8
DEFPOINTS
  6
BYBLOCK
 62
     0
 10
171.57061292895071
 20
170.66680121595141
 30
0.0
  0
ENDBLK
  5
255
  8
0
  0
BLOCK
  8
0
  2
*D19
 70
     1
 10
0.0
 20
0.0
 30
0.0
  3
*D19
  1

  0
LINE
  5
2BA
  8
0
  6
BYBLOCK
 62
     0
 10
151.04457023340831
 20
170.60430121595141
 30
0.0
 11
151.04457023340831
 21
152.08833790291189
 31
0.0
  0
LINE
  5
2BB
  8
0
  6
BYBLOCK
 62
     0
 10
157.04457023340831
 20
162.60430121595141
 30
0.0
 11
157.04457023340831
 21
152.08833790291189
 31
0.0
  0
LINE
  5
2BC
  8
0
  6
BYBLOCK
 62
     0
 10
148.04457023340831
 20
152.2683379029119
 30
0.0
 11
145.04457023340831
 21
152.2683379029119
 31
0.0
  0
LINE
  5
2BD
  8
0
  6
BYBLOCK
 62
     0
 10
160.04457023340831
 20
152.2683379029119
 30
0.0
 11
163.04457023340831
 21
152.2683379029119
 31
0.0
  0
SOLID
  5
2BE
  8
0
  6
BYBLOCK
 62
     0
 10
148.04457023340831
 20
152.7683379029119
 30
0.0
 11
148.04457023340831
 21
151.7683379029119
 31
0.0
 12
151.04457023340831
 22
152.2683379029119
 32
0.0
 13
151.04457023340831
 23
152.2683379029119
 33
0.0
  0
SOLID
  5
2BF
  8
0
  6
BYBLOCK
 62
     0
 10
160.04457023340831
 20
152.7683379029119
 30
0.0
 11
160.04457023340831
 21
151.7683379029119
 31
0.0
 12
157.04457023340831
 22
152.2683379029119
 32
0.0
 13
157.04457023340831
 23
152.2683379029119
 33
0.0
  0
TEXT
  5
2C0
  8
0
  6
BYBLOCK
 62
     0
 10
143.95428967241151
 20
153.5183379029119
 30
0.0
 40
2.5
  1
6
 72
     1
 11
144.78762300574479
 21
154.7683379029119
 31
0.0
 73
     2
  0
POINT
  5
2C1
  8
DEFPOINTS
  6
BYBLOCK
 62
     0
 10
151.04457023340831
 20
170.66680121595141
 30
0.0
  0
POINT
  5
2C2
  8
DEFPOINTS
  6
BYBLOCK
 62
     0
 10
157.04457023340831
 20
162.66680121595141
 30
0.0
  0
POINT
  5
2C3
  8
DEFPOINTS
  6
BYBLOCK
 62
     0
 10
157.04457023340831
 20
152.2683379029119
 30
0.0
  0
ENDBLK
  5
2C5
  8
0
  0
BLOCK
  8
0
  2
*D20
 70
     1
 10
0.0
 20
0.0
 30
0.0
  3
*D20
  1

  0
LINE
  5
215
  8
0
  6
BYBLOCK
 62
     0
 10
158.80159645563859
 20
159.36759616541659
 30
0.0
 11
166.5582349299932
 21
152.55616091954491
 31
0.0
  0
LINE
  5
216
  8
0
  6
BYBLOCK
 62
     0
 10
166.5582349299932
 20
152.55616091954491
 30
0.0
 11
169.7567165871852
 21
149.747437686523
 31
0.0
  0
SOLID
  5
217
  8
0
  6
BYBLOCK
 62
     0
 10
158.47167595058511
 20
158.99189354319361
 30
0.0
 11
159.1315169606921
 21
159.7432987876397
 31
0.0
 12
156.5473807223004
 22
161.34711919573749
 32
0.0
 13
156.5473807223004
 23
161.34711919573749
 33
0.0
  0
LINE
  5
218
  8
0
  6
BYBLOCK
 62
     0
 10
154.9545702334083
 20
162.66680121595141
 30
0.0
 11
155.13457023340831
 21
162.66680121595141
 31
0.0
  0
LINE
  5
219
  8
0
  6
BYBLOCK
 62
     0
 10
155.04457023340831
 20
162.57680121595141
 30
0.0
 11
155.04457023340831
 21
162.75680121595141
 31
0.0
  0
TEXT
  5
21A
  8
0
  6
BYBLOCK
 62
     0
 10
167.450662664627
 20
153.43603178419289
 30
0.0
 40
2.5
  1
R2
 50
318.71225155324049
 72
     1
 11
169.84089151985671
 21
153.0006195686943
 31
0.0
 73
     2
  0
POINT
  5
21B
  8
DEFPOINTS
  6
BYBLOCK
 62
     0
 10
156.5473807223004
 20
161.34711919573749
 30
0.0
  0
POINT
  5
21C
  8
DEFPOINTS
  6
BYBLOCK
 62
     0
 10
155.04457023340831
 20
162.66680121595141
 30
0.0
  0
ENDBLK
  5
21E
  8
0
  0
BLOCK
  8
0
  2
*D21
 70
     1
 10
0.0
 20
0.0
 30
0.0
  3
*D21
  1

  0
LINE
  5
2DA
  8
0
  6
BYBLOCK
 62
     0
 10
158.69958977649691
 20
208.54401361188471
 30
0.0
 11
161.4268515583548
 21
211.0898420681128
 31
0.0
  0
LINE
  5
2DB
  8
0
  6
BYBLOCK
 62
     0
 10
161.4268515583548
 20
211.0898420681128
 30
0.0
 11
164.5384915293709
 21
213.99447763938269
 31
0.0
  0
SOLID
  5
2DC
  8
0
  6
BYBLOCK
 62
     0
 10
159.04077641368599
 20
208.1785116575758
 30
0.0
 11
158.3584031393078
 21
208.90951556619351
 31
0.0
 12
156.50657805064381
 22
206.49689378874999
 32
0.0
 13
156.50657805064381
 23
206.49689378874999
 33
0.0
  0
LINE
  5
2DD
  8
0
  6
BYBLOCK
 62
     0
 10
154.9545702334083
 20
205.1321472399936
 30
0.0
 11
155.13457023340831
 21
205.1321472399936
 31
0.0
  0
LINE
  5
2DE
  8
0
  6
BYBLOCK
 62
     0
 10
155.04457023340831
 20
205.0421472399936
 30
0.0
 11
155.04457023340831
 21
205.2221472399936
 31
0.0
  0
TEXT
  5
2DF
  8
0
  6
BYBLOCK
 62
     0
 10
160.6396753171577
 20
212.0650105485789
 30
0.0
 40
2.5
  1
R2
 50
43.029378597065588
 72
     1
 11
161.30963353380511
 21
214.400376422639
 31
0.0
 73
     2
  0
POINT
  5
2E0
  8
DEFPOINTS
  6
BYBLOCK
 62
     0
 10
156.50657805064381
 20
206.49689378874999
 30
0.0
  0
POINT
  5
2E1
  8
DEFPOINTS
  6
BYBLOCK
 62
     0
 10
155.04457023340831
 20
205.1321472399936
 30
0.0
  0
ENDBLK
  5
2E3
  8
0
  0
BLOCK
  8
0
  2
*D22
 70
     1
 10
0.0
 20
0.0
 30
0.0
  3
*D22
  1

  0
LINE
  5
281
  8
0
  6
BYBLOCK
 62
     0
 10
135.6856714568284
 20
222.73342472804899
 30
0.0
 11
133.55948916610089
 21
217.2039309301843
 31
0.0
  0
LINE
  5
282
  8
0
  6
BYBLOCK
 62
     0
 10
133.55948916610089
 20
217.2039309301843
 30
0.0
 11
132.0317767071256
 21
213.2308583466789
 31
0.0
  0
SOLID
  5
283
  8
0
  6
BYBLOCK
 62
     0
 10
136.1523597007797
 20
222.55397533975901
 30
0.0
 11
135.21898321287711
 21
222.91287411633891
 31
0.0
 12
136.76236778656821
 22
225.53355419175679
 32
0.0
 13
136.76236778656821
 23
225.53355419175679
 33
0.0
  0
TEXT
  5
284
  8
0
  6
BYBLOCK
 62
     0
 10
130.8650560972473
 20
213.6794818174038
 30
0.0
 40
2.5
  1
R2
 50
68.967418479042323
 72
     1
 11
130.44604127191059
 21
216.07263963792579
 31
0.0
 73
     2
  0
POINT
  5
285
  8
DEFPOINTS
  6
BYBLOCK
 62
     0
 10
136.76236778656821
 20
225.53355419175679
 30
0.0
  0
POINT
  5
286
  8
DEFPOINTS
  6
BYBLOCK
 62
     0
 10
136.04457023340831
 20
223.66680121595161
 30
0.0
  0
ENDBLK
  5
288
  8
0
  0
BLOCK
  8
0
  2
*D23
 70
     1
 10
0.0
 20
0.0
 30
0.0
  3
*D23
  1

  0
LINE
  5
199
  8
0
  6
BYBLOCK
 62
     0
 10
80.780064689342638
 20
158.7863587660012
 30
0.0
 11
75.103388193875844
 21
151.80025746999641
 31
0.0
  0
LINE
  5
19A
  8
0
  6
BYBLOCK
 62
     0
 10
75.103388193875844
 20
151.80025746999641
 30
0.0
 11
72.41903194501657
 21
148.49670746427199
 31
0.0
  0
SOLID
  5
19B
  8
0
  6
BYBLOCK
 62
     0
 10
81.168108934337667
 20
158.47104675556349
 30
0.0
 11
80.392020444347608
 21
159.10167077643891
 31
0.0
 12
82.671936751968602
 22
161.11462423597141
 32
0.0
 13
82.671936751968602
 23
161.11462423597141
 33
0.0
  0
LINE
  5
19C
  8
0
  6
BYBLOCK
 62
     0
 10
83.843184793719246
 20
162.66680121595149
 30
0.0
 11
84.023184793719267
 21
162.66680121595149
 31
0.0
  0
LINE
  5
19D
  8
0
  6
BYBLOCK
 62
     0
 10
83.933184793719249
 20
162.57680121595149
 30
0.0
 11
83.933184793719249
 21
162.7568012159515
 31
0.0
  0
TEXT
  5
19E
  8
0
  6
BYBLOCK
 62
     0
 10
71.448921332528997
 20
149.28498749036621
 30
0.0
 40
2.5
  1
R2
 50
50.903823315997691
 72
     1
 11
71.79261076353167
 21
151.69011853727289
 31
0.0
 73
     2
  0
POINT
  5
19F
  8
DEFPOINTS
  6
BYBLOCK
 62
     0
 10
82.671936751968602
 20
161.11462423597141
 30
0.0
  0
POINT
  5
1A0
  8
DEFPOINTS
  6
BYBLOCK
 62
     0
 10
83.933184793719249
 20
162.66680121595149
 30
0.0
  0
ENDBLK
  5
1A2
  8
0
  0
BLOCK
  8
0
  2
*D24
 70
     1
 10
0.0
 20
0.0
 30
0.0
  3
*D24
  1

  0
LINE
  5
18C
  8
0
  6
BYBLOCK
 62
     0
 10
49.761978247457229
 20
215.36338669053089
 30
0.0
 11
47.666173877112762
 21
213.21685366230949
 31
0.0
  0
LINE
  5
18D
  8
0
  6
BYBLOCK
 62
     0
 10
47.666173877112762
 20
213.21685366230949
 30
0.0
 11
44.692460342746223
 21
210.1711617989333
 31
0.0
  0
SOLID
  5
18E
  8
0
  6
BYBLOCK
 62
     0
 10
50.119733752160784
 20
215.01408596214009
 30
0.0
 11
49.404222742753667
 21
215.7126874189216
 31
0.0
 12
51.857782617801689
 22
217.5099197187522
 32
0.0
 13
51.857782617801689
 23
217.5099197187522
 33
0.0
  0
LINE
  5
18F
  8
0
  6
BYBLOCK
 62
     0
 10
53.164985531364678
 20
218.94094173756639
 30
0.0
 11
53.344985531364692
 21
218.94094173756639
 31
0.0
  0
LINE
  5
190
  8
0
  6
BYBLOCK
 62
     0
 10
53.254985531364682
 20
218.85094173756639
 30
0.0
 11
53.254985531364682
 21
219.03094173756639
 31
0.0
  0
TEXT
  5
191
  8
0
  6
BYBLOCK
 62
     0
 10
43.798071580987333
 20
211.0444136199101
 30
0.0
 40
2.5
  1
R2
 50
45.685093900655097
 72
     1
 11
44.359102520856538
 21
213.40831337715181
 31
0.0
 73
     2
  0
POINT
  5
192
  8
DEFPOINTS
  6
BYBLOCK
 62
     0
 10
51.857782617801689
 20
217.5099197187522
 30
0.0
  0
POINT
  5
193
  8
DEFPOINTS
  6
BYBLOCK
 62
     0
 10
53.254985531364682
 20
218.94094173756639
 30
0.0
  0
ENDBLK
  5
195
  8
0
  0
BLOCK
  8
0
  2
SQ-A4
 70
     0
 10
0.0
 20
0.0
 30
0.0
  3
SQ-A4
  1

  0
LINE
  5
1F
  8
TRATTEGGIO
  6
CENTER
 62
     1
 10
36.5
 20
347.5
 30
0.0
 11
36.5
 21
533.0
 31
0.0
  0
LINE
  5
22
  8
TRATTEGGIO
  6
CENTER
 62
     1
 10
30.0
 20
533.0
 30
0.0
 11
61.0
 21
533.0
 31
0.0
  0
LINE
  5
23
  8
TRATTEGGIO
  6
CENTER
 62
     1
 10
380.5
 20
533.0
 30
0.0
 11
407.5
 21
533.0
 31
0.0
  0
LINE
  5
24
  8
TRATTEGGIO
  6
CENTER
 62
     1
 10
410.0
 20
409.49999999999989
 30
0.0
 11
410.0
 21
352.5
 31
0.0
  0
LINE
  5
25
  8
TRATTEGGIO
  6
CENTER
 62
     1
 10
122.75
 20
488.0
 30
0.0
 11
122.75
 21
673.5
 31
0.0
  0
LINE
  5
26
  8
TRATTEGGIO
  6
CENTER
 62
     1
 10
116.25
 20
673.5
 30
0.0
 11
147.25
 21
673.5
 31
0.0
  0
LINE
  5
27
  8
TRATTEGGIO
  6
CENTER
 62
     1
 10
466.75
 20
673.5
 30
0.0
 11
493.75
 21
673.5
 31
0.0
  0
LINE
  5
28
  8
TRATTEGGIO
  6
CENTER
 62
     1
 10
496.25
 20
550.0
 30
0.0
 11
496.25
 21
493.0
 31
0.0
  0
LINE
  5
29
  8
0
 10
30.25
 20
292.0
 30
0.0
 11
5.0
 21
292.0
 31
0.0
  0
LINE
  5
2A
  8
0
 10
30.25
 20
292.0
 30
0.0
 11
205.0
 21
292.0
 31
0.0
  0
LINE
  5
2B
  8
0
 10
10.25
 20
292.0
 30
0.0
 11
5.0
 21
292.0
 31
0.0
  0
LINE
  5
2C
  8
0
 10
58.75
 20
292.0
 30
0.0
 11
58.75
 21
287.0
 31
0.0
  0
TEXT
  5
2D
  8
Q
 10
32.0
 20
288.0
 30
0.0
 40
3.0
  1
1
  7
ROMANS
  0
TEXT
  5
30
  8
Q
 10
83.499999999999986
 20
288.0
 30
0.0
 40
3.0
  1
2
  7
ROMANS
  0
TEXT
  5
31
  8
Q
 10
133.5
 20
288.0
 30
0.0
 40
3.0
  1
3
  7
ROMANS
  0
TEXT
  5
32
  8
Q
 10
183.0
 20
288.0
 30
0.0
 40
3.0
  1
4
  7
ROMANS
  0
LINE
  5
33
  8
0
 10
108.75
 20
292.0
 30
0.0
 11
108.75
 21
287.0
 31
0.0
  0
LINE
  5
34
  8
0
 10
158.75
 20
292.0
 30
0.0
 11
158.75
 21
287.0
 31
0.0
  0
LINE
  5
35
  8
0
 10
200.0
 20
287.0
 30
0.0
 11
200.0
 21
10.0
 31
0.0
  0
LINE
  5
36
  8
0
 10
5.0
 20
292.0
 30
0.0
 11
5.0
 21
5.0
 31
0.0
  0
LINE
  5
37
  8
0
 10
10.0
 20
10.0
 30
0.0
 11
10.0
 21
287.0
 31
0.0
  0
LINE
  5
38
  8
0
 10
7.75
 20
261.0
 30
0.0
 11
10.0
 21
261.0
 31
0.0
  0
LINE
  5
39
  8
0
 10
7.75
 20
261.0
 30
0.0
 11
5.0
 21
261.0
 31
0.0
  0
LINE
  5
3A
  8
0
 10
5.0
 20
236.0
 30
0.0
 11
10.0
 21
236.0
 31
0.0
  0
LINE
  5
3B
  8
0
 10
5.0
 20
211.0
 30
0.0
 11
10.0
 21
211.0
 31
0.0
  0
LINE
  5
3C
  8
0
 10
5.0
 20
186.0
 30
0.0
 11
10.0
 21
186.0
 31
0.0
  0
LINE
  5
3D
  8
0
 10
5.0
 20
161.0
 30
0.0
 11
10.0
 21
161.0
 31
0.0
  0
LINE
  5
3E
  8
0
 10
5.0
 20
136.0
 30
0.0
 11
10.0
 21
136.0
 31
0.0
  0
LINE
  5
3F
  8
0
 10
5.0
 20
111.0
 30
0.0
 11
10.0
 21
111.0
 31
0.0
  0
LINE
  5
40
  8
0
 10
5.0
 20
36.0
 30
0.0
 11
10.0
 21
36.0
 31
0.0
  0
LINE
  5
41
  8
0
 10
5.0
 20
61.0
 30
0.0
 11
10.0
 21
61.0
 31
0.0
  0
LINE
  5
42
  8
0
 10
5.0
 20
86.0
 30
0.0
 11
10.0
 21
86.0
 31
0.0
  0
LINE
  5
43
  8
0
 10
57.25
 20
5.0
 30
0.0
 11
47.75
 21
5.0
 31
0.0
  0
LINE
  5
44
  8
0
 10
47.75
 20
5.0
 30
0.0
 11
5.0
 21
5.0
 31
0.0
  0
LINE
  5
45
  8
0
 10
23.5
 20
10.0
 30
0.0
 11
10.0
 21
10.0
 31
0.0
  0
LINE
  5
46
  8
0
 10
23.5
 20
10.0
 30
0.0
 11
200.0
 21
10.0
 31
0.0
  0
LINE
  5
47
  8
0
 10
57.25
 20
5.0
 30
0.0
 11
205.0
 21
5.0
 31
0.0
  0
TEXT
  5
48
  8
Q
 10
6.0
 20
272.25
 30
0.0
 40
3.0
  1
A
  7
ROMANS
  0
TEXT
  5
49
  8
Q
 10
5.75
 20
247.25
 30
0.0
 40
3.0
  1
B
  7
ROMANS
  0
TEXT
  5
4A
  8
Q
 10
6.25
 20
223.75
 30
0.0
 40
3.0
  1
C
  7
ROMANS
  0
TEXT
  5
4B
  8
Q
 10
6.0
 20
196.5
 30
0.0
 40
3.0
  1
D
  7
ROMANS
  0
TEXT
  5
4C
  8
Q
 10
6.5
 20
174.0
 30
0.0
 40
3.0
  1
E
  7
ROMANS
  0
TEXT
  5
4D
  8
Q
 10
6.25
 20
147.25
 30
0.0
 40
3.0
  1
F
  7
ROMANS
  0
TEXT
  5
4E
  8
Q
 10
6.0
 20
123.75
 30
0.0
 40
3.0
  1
G
  7
ROMANS
  0
TEXT
  5
4F
  8
Q
 10
5.75
 20
96.5
 30
0.0
 40
3.0
  1
H
  7
ROMANS
  0
TEXT
  5
50
  8
Q
 10
6.0
 20
73.25
 30
0.0
 40
3.0
  1
J
  7
ROMANS
  0
TEXT
  5
51
  8
Q
 10
6.25
 20
48.25
 30
0.0
 40
3.0
  1
K
  7
ROMANS
  0
TEXT
  5
52
  8
Q
 10
6.25
 20
17.5
 30
0.0
 40
3.0
  1
L
  7
ROMANS
  0
TEXT
  5
53
  8
Q
 10
201.25
 20
48.25
 30
0.0
 40
3.0
  1
K
  7
ROMANS
  0
TEXT
  5
54
  8
Q
 10
201.5
 20
73.25
 30
0.0
 40
3.0
  1
J
  7
ROMANS
  0
TEXT
  5
55
  8
Q
 10
201.0
 20
96.5
 30
0.0
 40
3.0
  1
H
  7
ROMANS
  0
TEXT
  5
56
  8
Q
 10
201.25
 20
123.75
 30
0.0
 40
3.0
  1
G
  7
ROMANS
  0
TEXT
  5
57
  8
Q
 10
201.5
 20
147.25
 30
0.0
 40
3.0
  1
F
  7
ROMANS
  0
TEXT
  5
58
  8
Q
 10
201.5
 20
174.0
 30
0.0
 40
3.0
  1
E
  7
ROMANS
  0
TEXT
  5
59
  8
Q
 10
201.25
 20
196.5
 30
0.0
 40
3.0
  1
D
  7
ROMANS
  0
TEXT
  5
5A
  8
Q
 10
201.25
 20
223.75
 30
0.0
 40
3.0
  1
C
  7
ROMANS
  0
TEXT
  5
5B
  8
Q
 10
201.25
 20
247.25
 30
0.0
 40
3.0
  1
B
  7
ROMANS
  0
TEXT
  5
5C
  8
Q
 10
201.25
 20
272.25
 30
0.0
 40
3.0
  1
A
  7
ROMANS
  0
LINE
  5
5D
  8
0
 10
200.0
 20
61.0
 30
0.0
 11
205.0
 21
61.0
 31
0.0
  0
LINE
  5
5E
  8
0
 10
200.0
 20
36.0
 30
0.0
 11
205.0
 21
36.0
 31
0.0
  0
LINE
  5
5F
  8
0
 10
200.0
 20
86.0
 30
0.0
 11
205.0
 21
86.0
 31
0.0
  0
LINE
  5
60
  8
0
 10
200.0
 20
111.0
 30
0.0
 11
205.0
 21
111.0
 31
0.0
  0
LINE
  5
61
  8
0
 10
200.0
 20
136.0
 30
0.0
 11
205.0
 21
136.0
 31
0.0
  0
LINE
  5
62
  8
0
 10
200.0
 20
161.0
 30
0.0
 11
205.0
 21
161.0
 31
0.0
  0
LINE
  5
63
  8
0
 10
200.0
 20
186.0
 30
0.0
 11
205.0
 21
186.0
 31
0.0
  0
LINE
  5
64
  8
0
 10
200.0
 20
211.0
 30
0.0
 11
205.0
 21
211.0
 31
0.0
  0
LINE
  5
65
  8
0
 10
200.0
 20
236.0
 30
0.0
 11
205.0
 21
236.0
 31
0.0
  0
LINE
  5
66
  8
0
 10
202.75
 20
261.0
 30
0.0
 11
200.0
 21
261.0
 31
0.0
  0
LINE
  5
67
  8
0
 10
202.75
 20
261.0
 30
0.0
 11
205.0
 21
261.0
 31
0.0
  0
TEXT
  5
68
  8
Q
 10
32.0
 20
6.0
 30
0.0
 40
3.0
  1
1
  7
ROMANS
  0
LINE
  5
69
  8
0
 10
58.75
 20
10.0
 30
0.0
 11
58.75
 21
5.0
 31
0.0
  0
LINE
  5
6A
  8
0
 10
158.75
 20
10.25
 30
0.0
 11
158.75
 21
5.25
 31
0.0
  0
LINE
  5
6B
  8
0
 10
108.75
 20
10.25
 30
0.0
 11
108.75
 21
5.25
 31
0.0
  0
TEXT
  5
6C
  8
Q
 10
183.0
 20
6.5
 30
0.0
 40
3.0
  1
4
  7
ROMANS
  0
TEXT
  5
6D
  8
Q
 10
133.5
 20
6.25
 30
0.0
 40
3.0
  1
3
  7
ROMANS
  0
TEXT
  5
6E
  8
Q
 10
83.499999999999986
 20
6.0
 30
0.0
 40
3.0
  1
2
  7
ROMANS
  0
LINE
  5
6F
  8
0
 10
5.0
 20
86.0
 30
0.0
 11
9.75
 21
86.0
 31
0.0
  0
LINE
  5
70
  8
0
 10
205.0
 20
23.25
 30
0.0
 11
205.0
 21
4.75
 31
0.0
  0
LINE
  5
71
  8
0
 10
205.0
 20
23.25
 30
0.0
 11
205.0
 21
292.0
 31
0.0
  0
TEXT
  5
72
  8
Q
 10
201.25
 20
17.5
 30
0.0
 40
3.0
  1
L
  7
ROMANS
  0
LINE
  5
73
  8
0
 10
200.0
 20
287.0
 30
0.0
 11
10.0
 21
287.0
 31
0.0
  0
INSERT
  5
74
  8
0
  2
TABGALM
 10
200.0
 20
10.0
 30
0.0
 41
0.8
 42
0.8
 43
0.8
  0
ENDBLK
  5
DE
  8
0
  0
BLOCK
  8
0
  2
TABGALM
 70
     0
 10
0.0
 20
0.0
 30
0.0
  3
TABGALM
  1

  0
LINE
  5
76
  8
TAB
 10
-200.0
 20
80.0
 30
0.0
 11
-30.0
 21
80.0
 31
0.0
  0
LINE
  5
78
  8
TAB
 10
-200.0
 20
70.0
 30
0.0
 11
-30.0
 21
70.0
 31
0.0
  0
LINE
  5
79
  8
0
 10
0.0
 20
0.0
 30
0.0
 11
-230.0
 21
0.0
 31
0.0
  0
LINE
  5
7A
  8
TAB
 10
-200.0
 20
70.000000000000028
 30
0.0
 11
0.0
 21
70.000000000000028
 31
0.0
  0
LINE
  5
7B
  8
TAB
 10
-200.0
 20
20.000000000000028
 30
0.0
 11
0.0
 21
20.000000000000028
 31
0.0
  0
LINE
  5
7C
  8
0
 10
-200.0
 20
80.0
 30
0.0
 11
-200.0
 21
0.0
 31
0.0
  0
LINE
  5
7D
  8
0
 10
-230.0
 20
0.0
 30
0.0
 11
-230.0
 21
80.0
 31
0.0
  0
TEXT
  5
7E
  8
TAB
 10
-222.70699813423991
 20
5.1945118636955101
 30
0.0
 40
3.0
  1
DISEGNO ESEGUITO CON C.A.D.
 50
90.0
  7
ROMANS
  0
TEXT
  5
7F
  8
TAB
 10
-217.84985527709711
 20
5.1945118636955101
 30
0.0
 40
3.0
  1
non sono ammesse variazioni
 50
90.0
  7
ROMANS
  0
TEXT
  5
80
  8
TAB
 10
-212.99271241995419
 20
5.1945118636955101
 30
0.0
 40
3.0
  1
o modifiche manuali
 50
90.0
  7
ROMANS
  0
TEXT
  5
81
  8
TAB
 10
-204.4724269438492
 20
5.1945118636955101
 30
0.0
 40
3.0
  1
N%%d FILE :
 50
90.0
  7
ROMANS
  0
LINE
  5
82
  8
0
 10
-230.0
 20
80.0
 30
0.0
 11
-200.0
 21
80.0
 31
0.0
  0
LINE
  5
83
  8
TAB
 10
-200.0
 20
70.0
 30
0.0
 11
-200.0
 21
79.929453576897231
 31
0.0
  0
TEXT
  5
84
  8
TAB
 10
-101.40935854017521
 20
71.0
 30
0.0
 40
2.0
  1
SPIGOLI NON QUOTATI
  7
ROMANS
  0
LINE
  5
85
  8
TAB
 10
-199.0
 20
74.0
 30
0.0
 11
-31.194880454738211
 21
74.0
 31
0.0
  0
LINE
  5
86
  8
TAB
 10
-90.0
 20
40.000000000000021
 30
0.0
 11
0.0
 21
40.000000000000021
 31
0.0
  0
LINE
  5
87
  8
TAB
 10
-90.0
 20
50.000000000000028
 30
0.0
 11
-36.906152719282318
 21
50.000000000000028
 31
0.0
  0
LINE
  5
88
  8
TAB
 10
-90.0
 20
60.000000000000028
 30
0.0
 11
-36.906152719282318
 21
60.000000000000028
 31
0.0
  0
LINE
  5
89
  8
TAB
 10
-51.932546216746232
 20
10.00000000000003
 30
0.0
 11
-88.434744137662392
 21
10.00000000000003
 31
0.0
  0
TEXT
  5
8A
  8
TAB
 10
-88.392701946481452
 20
36.107807892704592
 30
0.0
 40
2.0
  1
DIMENSIONI IN mm
  7
ROMANS
  0
LINE
  5
8B
  8
TAB
 10
-89.0
 20
64.000000000000028
 30
0.0
 11
-61.0
 21
64.000000000000057
 31
0.0
  0
LINE
  5
8C
  8
TAB
 10
-89.0
 20
54.000000000000028
 30
0.0
 11
-61.0
 21
54.00000000000005
 31
0.0
  0
LINE
  5
8D
  8
TAB
 10
-89.0
 20
44.00000000000005
 30
0.0
 11
-61.0
 21
44.000000000000078
 31
0.0
  0
LINE
  5
8E
  8
TAB
 10
-90.0
 20
0.0000000000000284
 30
0.0
 11
-90.0
 21
70.000000000000028
 31
0.0
  0
LINE
  5
8F
  8
TAB
 10
-198.0
 20
38.000000000000057
 30
0.0
 11
-92.0
 21
38.000000000000028
 31
0.0
  0
LINE
  5
90
  8
TAB
 10
-198.0
 20
30.00000000000006
 30
0.0
 11
-92.0
 21
30.000000000000028
 31
0.0
  0
LINE
  5
91
  8
TAB
 10
-198.0
 20
22.00000000000006
 30
0.0
 11
-92.0
 21
22.000000000000028
 31
0.0
  0
TEXT
  5
92
  8
TAB
 10
-195.87963023352361
 20
17.179616288121391
 30
0.0
 40
1.844364967431996
  1
Proprieta'dott.GALLINA s.r.l.Senza autorizzazione scritta
  7
MONOTXT
  0
TEXT
  5
94
  8
TAB
 10
-195.87963023352361
 20
14.10567467573472
 30
0.0
 40
1.844364967431996
  1
della stessa il presente disegno non potra' essere co-
  7
MONOTXT
  0
TEXT
  5
95
  8
TAB
 10
-195.87963023352361
 20
11.031733063348041
 30
0.0
 40
1.844364967431996
  1
munque utilizzato per la costruzione dell' oggetto rap-
  7
MONOTXT
  0
TEXT
  5
96
  8
TAB
 10
-195.87963023352361
 20
7.9577914509613663
 30
0.0
 40
1.844364967431996
  1
presentato ne' venire comunicato a terzi o riprodotto.
  7
MONOTXT
  0
TEXT
  5
97
  8
TAB
 10
-195.87963023352361
 20
4.8838498385747471
 30
0.0
 40
1.844364967431996
  1
La Societa' proprietaria tutela i propri diritti a ri-
  7
MONOTXT
  0
TEXT
  5
98
  8
TAB
 10
-198.0
 20
39.963051544155981
 30
0.0
 40
4.0
  1
MATERIALE:
  7
ROMANS
  0
TEXT
  5
99
  8
TAB
 10
-195.87963023352361
 20
1.809908226188071
 30
0.0
 40
1.844364967431996
  1
gore di legge.
  7
MONOTXT
  0
LINE
  5
9A
  8
TAB
 10
-85.329418859454677
 20
13.00000000000003
 30
0.0
 11
-70.329418859454677
 21
16.000000000000028
 31
0.0
  0
LINE
  5
9B
  8
TAB
 10
-85.329418859454677
 20
7.0000000000000284
 30
0.0
 11
-70.329418859454677
 21
4.0000000000000284
 31
0.0
  0
LINE
  5
9C
  8
TAB
 10
-85.329418859454677
 20
7.0000000000000284
 30
0.0
 11
-85.329418859454677
 21
13.00000000000003
 31
0.0
  0
LINE
  5
9D
  8
TAB
 10
-70.329418859454677
 20
4.0000000000000284
 30
0.0
 11
-70.329418859454677
 21
16.000000000000028
 31
0.0
  0
TEXT
  5
9E
  8
TAB
 10
-88.833841603020119
 20
40.99902794132359
 30
0.0
 40
2.0
  1
FOGLIO
  7
ROMANS
  0
TEXT
  5
9F
  8
TAB
 10
-155.1943582814489
 20
71.0
 30
0.0
 40
2.0
  1
PERIMETRO mm.
  7
ROMANS
  0
LINE
  5
A0
  8
TAB
 10
-198.0
 20
62.000000000000057
 30
0.0
 11
-92.0
 21
62.000000000000021
 31
0.0
  0
LINE
  5
A1
  8
TAB
 10
-198.0
 20
54.00000000000005
 30
0.0
 11
-92.0
 21
54.000000000000028
 31
0.0
  0
LINE
  5
A2
  8
TAB
 10
-198.0
 20
46.00000000000005
 30
0.0
 11
-92.0
 21
46.000000000000028
 31
0.0
  0
TEXT
  5
A3
  8
TAB
 10
-173.6588128984373
 20
71.0
 30
0.0
 40
2.0
  1
AREA mm
  7
ROMANS
  0
TEXT
  5
A4
  8
TAB
 10
-198.0
 20
63.471304138326843
 30
0.0
 40
4.0
  1
DENOMINAZIONE:
  7
ROMANS
  0
TEXT
  5
A5
  8
TAB
 10
-196.40937262354609
 20
71.0
 30
0.0
 40
2.0
  1
PESO gr/ml
  7
ROMANS
  0
LINE
  5
A6
  8
TAB
 10
-175.9822844712094
 20
70.0
 30
0.0
 11
-175.9822844712094
 21
80.0
 31
0.0
  0
LINE
  5
A7
  8
TAB
 10
-156.4921252921076
 20
70.0
 30
0.0
 11
-156.4921252921076
 21
80.0
 31
0.0
  0
TEXT
  5
A8
  8
TAB
 10
-158.6408538796951
 20
72.181295870163012
 30
0.0
 40
1.0
  1
2
  7
ROMANS
  0
TEXT
  5
A9
  8
TAB
 10
-128.70813459684359
 20
71.0
 30
0.0
 40
2.0
  1
SPESSORE mm.
  7
ROMANS
  0
LINE
  5
AA
  8
TAB
 10
-130.04178723981229
 20
70.0
 30
0.0
 11
-130.04178723981229
 21
80.0
 31
0.0
  0
LINE
  5
AB
  8
TAB
 10
-103.0132155663583
 20
70.0
 30
0.0
 11
-103.0132155663583
 21
80.0
 31
0.0
  0
TEXT
  5
AC
  8
TAB
 10
-88.833841603020119
 20
61.000000000000028
 30
0.0
 40
2.0
  1
SCALA
  7
ROMANS
  0
TEXT
  5
AD
  8
TAB
 10
-88.833841603020119
 20
50.966845416114722
 30
0.0
 40
2.0
  1
DISEGNATO
  7
ROMANS
  0
TEXT
  5
AE
  8
0
 10
-100.3986222096472
 20
75.447945825766851
 30
0.0
 40
3.0
  1
R=
  7
ROMANS
  0
LINE
  5
AF
  8
0
 10
0.0
 20
79.999999999999943
 30
0.0
 11
0.0
 21
0.0
 31
0.0
  0
TEXT
  5
B0
  8
TAB
 10
-26.129583193182611
 20
45.153624401513227
 30
0.0
 40
3.0
  1
gallina
  0
TEXT
  5
B1
  8
TAB
 10
-9.1245543751545028
 20
45.512555949430613
 30
0.0
 40
2.0
  1
s.r.l.  
  0
TEXT
  5
B2
  8
TAB
 10
-36.027758080460103
 20
44.905559269780213
 30
0.0
 40
2.0
  1
dott.      
  0
LINE
  5
B3
  8
TAB
 10
-36.727545321369803
 20
40.000000000000021
 30
0.0
 11
-36.727545321369803
 21
70.0
 31
0.0
  0
LINE
  5
B4
  8
TAB
 10
-61.245447942051889
 20
40.000000000000057
 30
0.0
 11
-61.245447942051889
 21
70.000000000000028
 31
0.0
  0
TEXT
  5
B5
  8
TAB
 10
-36.345980678390113
 20
41.411034241908453
 30
0.0
 40
1.4070103284643649
  1
INDUSTRIA MATERIE PLASTICHE
 72
     3
 11
-0.7017190239595266
 21
41.411034241908453
 31
0.0
  0
LINE
  5
B6
  8
TAB
 10
-49.0
 20
8.0000000000000284
 30
0.0
 11
-1.0
 21
8.0000000000000284
 31
0.0
  0
TEXT
  5
B7
  8
TAB
 10
-47.707950354223833
 20
2.8218625598435159
 30
0.0
 40
3.0
  1
N%%D DISEGNO
  7
ROMANS
  0
CIRCLE
  5
B8
  8
TAB
 10
-60.366632292173101
 20
10.00000000000003
 30
0.0
 40
6.0
  0
CIRCLE
  5
B9
  8
TAB
 10
-60.366632292173101
 20
10.00000000000003
 30
0.0
 40
3.0
  0
LINE
  5
BA
  8
TAB
 10
-60.366632292173101
 20
18.503186171289538
 30
0.0
 11
-60.366632292173101
 21
1.496813828710543
 31
0.0
  0
LINE
  5
BB
  8
TAB
 10
-50.0
 20
0.0000000000000284
 30
0.0
 11
-50.0
 21
20.000000000000028
 31
0.0
  0
TEXT
  5
BC
  8
TAB
 10
-58.516147262714298
 20
40.99902794132359
 30
0.0
 40
2.0
  1
di FOGLI
  7
ROMANS
  0
LINE
  5
BD
  8
TAB
 10
-59.0
 20
44.000000000000078
 30
0.0
 11
-37.906152719282318
 21
44.00000000000005
 31
0.0
  0
TEXT
  5
BE
  8
TAB
 10
-59.164838395965027
 20
36.121030230041256
 30
0.0
 40
2.0
  1
.
  7
ROMANS
  0
TEXT
  5
BF
  8
TAB
 10
-58.516147262714298
 20
61.000000000000028
 30
0.0
 40
2.0
  1
DATA
  7
ROMANS
  0
TEXT
  5
C0
  8
TAB
 10
-58.516147262714298
 20
50.966845416114722
 30
0.0
 40
2.0
  1
VISTO
  7
ROMANS
  0
LINE
  5
C1
  8
TAB
 10
-59.0
 20
54.00000000000005
 30
0.0
 11
-37.906152719282318
 21
54.000000000000028
 31
0.0
  0
LINE
  5
C2
  8
TAB
 10
-59.0
 20
64.000000000000057
 30
0.0
 11
-37.906152719282318
 21
64.000000000000028
 31
0.0
  0
LINE
  5
C3
  8
TAB
 10
-67.204724261121214
 20
70.0
 30
0.0
 11
-67.204724261121214
 21
80.0
 31
0.0
  0
LINE
  5
C4
  8
TAB
 10
-19.863757477059892
 20
59.055915375613289
 30
0.0
 11
-19.863757477059892
 21
55.619376419046688
 31
0.0
  0
LINE
  5
C5
  8
TAB
 10
-34.106618928991232
 20
59.055915375613289
 30
0.0
 11
-34.106618928991232
 21
55.61937641904666
 31
0.0
  0
LINE
  5
C6
  8
TAB
 10
-26.98518820302559
 20
51.934484649647608
 30
0.0
 11
-19.863757477059892
 21
59.055915375613289
 31
0.0
  0
LINE
  5
C7
  8
TAB
 10
-34.106618928991232
 20
59.055915375613289
 30
0.0
 11
-26.98518820302559
 21
51.934484649647608
 31
0.0
  0
LINE
  5
C8
  8
TAB
 10
-26.98518820302559
 20
53.079997635169818
 30
0.0
 11
-19.863757477059892
 21
60.201428361135491
 31
0.0
  0
LINE
  5
C9
  8
TAB
 10
-34.106618928991232
 20
60.201428361135491
 30
0.0
 11
-26.98518820302559
 21
53.079997635169818
 31
0.0
  0
POLYLINE
  5
CA
  8
TAB
 66
     1
 10
0.0
 20
0.0
 30
0.0
 70
     1
  0
VERTEX
  5
2FD
  8
TAB
 10
-26.98518820302559
 20
53.079997635169818
 30
0.0
  0
VERTEX
  5
2FE
  8
TAB
 10
-19.863757477059892
 20
60.201428361135491
 30
0.0
  0
VERTEX
  5
2FF
  8
TAB
 10
-26.98518820302559
 20
67.322859087101165
 30
0.0
  0
VERTEX
  5
300
  8
TAB
 10
-34.106618928991281
 20
60.201428361135491
 30
0.0
  0
SEQEND
  5
301
  8
TAB
  0
ARC
  5
CB
  8
TAB
 10
-26.98518820302559
 20
60.201428361135491
 30
0.0
 40
4.0499999999999989
 50
29.946687855966481
 51
7.7916092072840524
  0
LINE
  5
CC
  8
TAB
 10
-34.106618928991232
 20
55.61937641904666
 30
0.0
 11
-26.98518820302559
 21
48.497945693080993
 31
0.0
  0
LINE
  5
CD
  8
TAB
 10
-26.98518820302559
 20
48.497945693080993
 30
0.0
 11
-19.863757477059892
 21
55.619376419046688
 31
0.0
  0
ARC
  5
CE
  8
TAB
 10
-26.98518820302559
 20
60.201428361135491
 30
0.0
 40
2.8349999999999991
 50
29.946687855966552
 51
346.4143121411376
  0
LINE
  5
CF
  8
TAB
 10
-24.52868830161913
 20
61.616643268628309
 30
0.0
 11
-23.475902629587718
 21
62.223163943268069
 31
0.0
  0
LINE
  5
D0
  8
TAB
 10
-22.935188203025579
 20
60.75048880096557
 30
0.0
 11
-26.98518820302559
 21
60.75048880096557
 31
0.0
  0
LINE
  5
D1
  8
TAB
 10
-24.229512332717039
 20
59.535488800965567
 30
0.0
 11
-26.98518820302559
 21
59.535488800965567
 31
0.0
  0
LINE
  5
D2
  8
TAB
 10
-26.98518820302559
 20
60.75048880096557
 30
0.0
 11
-26.98518820302559
 21
59.652367921305483
 31
0.0
  0
TEXT
  5
D3
  8
TAB
 10
-26.79017849538366
 20
71.000000000000028
 30
0.0
 40
3.0
  1
MODIFICHE
  7
ROMANS
  0
LINE
  5
D4
  8
TAB
 10
-30.0
 20
70.0
 30
0.0
 11
-30.0
 21
80.0
 31
0.0
  0
LINE
  5
D5
  8
TAB
 10
-30.0
 20
70.0
 30
0.0
 11
-30.0
 21
79.999999999999972
 31
0.0
  0
LINE
  5
D6
  8
TAB
 10
-25.0
 20
75.000000000000028
 30
0.0
 11
-25.0
 21
79.999999999999972
 31
0.0
  0
LINE
  5
D7
  8
TAB
 10
-20.0
 20
75.000000000000028
 30
0.0
 11
-20.0
 21
79.999999999999972
 31
0.0
  0
LINE
  5
D8
  8
TAB
 10
-15.0
 20
75.000000000000028
 30
0.0
 11
-15.0
 21
79.999999999999972
 31
0.0
  0
LINE
  5
D9
  8
TAB
 10
-10.0
 20
75.000000000000028
 30
0.0
 11
-10.0
 21
79.999999999999972
 31
0.0
  0
LINE
  5
DA
  8
TAB
 10
-5.0
 20
75.000000000000028
 30
0.0
 11
-5.0
 21
79.999999999999972
 31
0.0
  0
ENDBLK
  5
DC
  8
0
  0
BLOCK
  8
0
  2
*D27
 70
     1
 10
0.0
 20
0.0
 30
0.0
  3
*D27
  1

  0
LINE
  5
133
  8
0
  6
BYBLOCK
 62
     0
 10
51.254985531364682
 20
223.41864465295609
 30
0.0
 11
51.254985531364682
 21
270.1748978537438
 31
0.0
  0
LINE
  5
134
  8
0
  6
BYBLOCK
 62
     0
 10
89.254985531364696
 20
223.41864465295609
 30
0.0
 11
89.254985531364696
 21
270.1748978537438
 31
0.0
  0
LINE
  5
135
  8
0
  6
BYBLOCK
 62
     0
 10
54.254985531364682
 20
269.99489785374368
 30
0.0
 11
86.254985531364682
 21
269.99489785374368
 31
0.0
  0
SOLID
  5
136
  8
0
  6
BYBLOCK
 62
     0
 10
54.254985531364682
 20
270.49489785374368
 30
0.0
 11
54.254985531364682
 21
269.49489785374368
 31
0.0
 12
51.254985531364682
 22
269.99489785374368
 32
0.0
 13
51.254985531364682
 23
269.99489785374368
 33
0.0
  0
SOLID
  5
137
  8
0
  6
BYBLOCK
 62
     0
 10
86.254985531364682
 20
270.49489785374368
 30
0.0
 11
86.254985531364682
 21
269.49489785374368
 31
0.0
 12
89.254985531364696
 22
269.99489785374368
 32
0.0
 13
89.254985531364696
 23
269.99489785374368
 33
0.0
  0
INSERT
  5
138
  8
0
  2
*U33
 10
0.0
 20
0.0
 30
0.0
  0
POINT
  5
139
  8
DEFPOINTS
  6
BYBLOCK
 62
     0
 10
51.254985531364682
 20
223.35614465295609
 30
0.0
  0
POINT
  5
13A
  8
DEFPOINTS
  6
BYBLOCK
 62
     0
 10
89.254985531364696
 20
223.35614465295609
 30
0.0
  0
POINT
  5
13B
  8
DEFPOINTS
  6
BYBLOCK
 62
     0
 10
89.254985531364696
 20
269.99489785374368
 30
0.0
  0
ENDBLK
  5
13D
  8
0
  0
BLOCK
  8
0
  2
*D28
 70
     1
 10
0.0
 20
0.0
 30
0.0
  3
*D28
  1

  0
LINE
  5
14E
  8
0
  6
BYBLOCK
 62
     0
 10
81.254985531364682
 20
223.41864465295609
 30
0.0
 11
81.254985531364682
 21
241.71686606788651
 31
0.0
  0
LINE
  5
14F
  8
0
  6
BYBLOCK
 62
     0
 10
89.254985531364696
 20
223.41864465295609
 30
0.0
 11
89.254985531364696
 21
241.71686606788651
 31
0.0
  0
LINE
  5
150
  8
0
  6
BYBLOCK
 62
     0
 10
78.254985531364682
 20
241.53686606788651
 30
0.0
 11
75.254985531364682
 21
241.53686606788651
 31
0.0
  0
LINE
  5
151
  8
0
  6
BYBLOCK
 62
     0
 10
92.254985531364682
 20
241.53686606788651
 30
0.0
 11
106.838318864698
 21
241.53686606788651
 31
0.0
  0
SOLID
  5
152
  8
0
  6
BYBLOCK
 62
     0
 10
78.254985531364682
 20
242.03686606788651
 30
0.0
 11
78.254985531364682
 21
241.03686606788651
 31
0.0
 12
81.254985531364682
 22
241.53686606788651
 32
0.0
 13
81.254985531364682
 23
241.53686606788651
 33
0.0
  0
SOLID
  5
153
  8
0
  6
BYBLOCK
 62
     0
 10
92.254985531364682
 20
242.03686606788651
 30
0.0
 11
92.254985531364682
 21
241.03686606788651
 31
0.0
 12
89.254985531364696
 22
241.53686606788651
 32
0.0
 13
89.254985531364696
 23
241.53686606788651
 33
0.0
  0
INSERT
  5
154
  8
0
  2
*U34
 10
0.0
 20
0.0
 30
0.0
  0
POINT
  5
155
  8
DEFPOINTS
  6
BYBLOCK
 62
     0
 10
81.254985531364682
 20
223.35614465295609
 30
0.0
  0
POINT
  5
156
  8
DEFPOINTS
  6
BYBLOCK
 62
     0
 10
89.254985531364696
 20
223.35614465295609
 30
0.0
  0
POINT
  5
157
  8
DEFPOINTS
  6
BYBLOCK
 62
     0
 10
89.254985531364696
 20
241.53686606788651
 30
0.0
  0
ENDBLK
  5
159
  8
0
  0
BLOCK
  8
0
  2
*D29
 70
     1
 10
0.0
 20
0.0
 30
0.0
  3
*D29
  1

  0
LINE
  5
258
  8
0
  6
BYBLOCK
 62
     0
 10
141.10707023340831
 20
223.3561446529562
 30
0.0
 11
149.90030938080639
 21
223.3561446529562
 31
0.0
  0
LINE
  5
259
  8
0
  6
BYBLOCK
 62
     0
 10
144.10707023340831
 20
220.3561446529562
 30
0.0
 11
149.90030938080639
 21
220.3561446529562
 31
0.0
  0
LINE
  5
25A
  8
0
  6
BYBLOCK
 62
     0
 10
149.72030938080641
 20
217.3561446529562
 30
0.0
 11
149.72030938080641
 21
214.3561446529562
 31
0.0
  0
LINE
  5
25B
  8
0
  6
BYBLOCK
 62
     0
 10
149.72030938080641
 20
226.3561446529562
 30
0.0
 11
149.72030938080641
 21
238.93947798628949
 31
0.0
  0
SOLID
  5
25C
  8
0
  6
BYBLOCK
 62
     0
 10
149.22030938080641
 20
217.3561446529562
 30
0.0
 11
150.22030938080641
 21
217.3561446529562
 31
0.0
 12
149.72030938080641
 22
220.3561446529562
 32
0.0
 13
149.72030938080641
 23
220.3561446529562
 33
0.0
  0
SOLID
  5
25D
  8
0
  6
BYBLOCK
 62
     0
 10
149.22030938080641
 20
226.3561446529562
 30
0.0
 11
150.22030938080641
 21
226.3561446529562
 31
0.0
 12
149.72030938080641
 22
223.3561446529562
 32
0.0
 13
149.72030938080641
 23
223.3561446529562
 33
0.0
  0
INSERT
  5
25E
  8
0
  2
*U36
 10
0.0
 20
0.0
 30
0.0
  0
POINT
  5
25F
  8
DEFPOINTS
  6
BYBLOCK
 62
     0
 10
141.04457023340831
 20
223.3561446529562
 30
0.0
  0
POINT
  5
260
  8
DEFPOINTS
  6
BYBLOCK
 62
     0
 10
144.04457023340831
 20
220.3561446529562
 30
0.0
  0
POINT
  5
261
  8
DEFPOINTS
  6
BYBLOCK
 62
     0
 10
149.72030938080641
 20
220.3561446529562
 30
0.0
  0
ENDBLK
  5
263
  8
0
  0
BLOCK
  8
0
  2
*D30
 70
     1
 10
0.0
 20
0.0
 30
0.0
  3
*D30
  1

  0
LINE
  5
23E
  8
0
  6
BYBLOCK
 62
     0
 10
151.10707023340831
 20
167.35614465295609
 30
0.0
 11
171.7506129289508
 21
167.35614465295609
 31
0.0
  0
LINE
  5
23F
  8
0
  6
BYBLOCK
 62
     0
 10
151.10707023340831
 20
192.35614465295609
 30
0.0
 11
171.7506129289508
 21
192.35614465295609
 31
0.0
  0
LINE
  5
240
  8
0
  6
BYBLOCK
 62
     0
 10
171.57061292895071
 20
170.35614465295609
 30
0.0
 11
171.57061292895071
 21
189.35614465295609
 31
0.0
  0
SOLID
  5
241
  8
0
  6
BYBLOCK
 62
     0
 10
171.07061292895071
 20
170.35614465295609
 30
0.0
 11
172.07061292895071
 21
170.35614465295609
 31
0.0
 12
171.57061292895071
 22
167.35614465295609
 32
0.0
 13
171.57061292895071
 23
167.35614465295609
 33
0.0
  0
SOLID
  5
242
  8
0
  6
BYBLOCK
 62
     0
 10
171.07061292895071
 20
189.35614465295609
 30
0.0
 11
172.07061292895071
 21
189.35614465295609
 31
0.0
 12
171.57061292895071
 22
192.35614465295609
 32
0.0
 13
171.57061292895071
 23
192.35614465295609
 33
0.0
  0
INSERT
  5
243
  8
0
  2
*U35
 10
0.0
 20
0.0
 30
0.0
  0
POINT
  5
244
  8
DEFPOINTS
  6
BYBLOCK
 62
     0
 10
151.04457023340831
 20
167.35614465295609
 30
0.0
  0
POINT
  5
245
  8
DEFPOINTS
  6
BYBLOCK
 62
     0
 10
151.04457023340831
 20
192.35614465295609
 30
0.0
  0
POINT
  5
246
  8
DEFPOINTS
  6
BYBLOCK
 62
     0
 10
171.57061292895071
 20
192.35614465295609
 30
0.0
  0
ENDBLK
  5
248
  8
0
  0
BLOCK
  8
0
  2
*D31
 70
     1
 10
0.0
 20
0.0
 30
0.0
  3
*D31
  1

  0
LINE
  5
2AC
  8
0
  6
BYBLOCK
 62
     0
 10
138.04457023340831
 20
157.29364465295609
 30
0.0
 11
138.04457023340831
 21
138.0725899806005
 31
0.0
  0
LINE
  5
2AD
  8
0
  6
BYBLOCK
 62
     0
 10
157.04457023340831
 20
159.29364465295609
 30
0.0
 11
157.04457023340831
 21
138.0725899806005
 31
0.0
  0
LINE
  5
2AE
  8
0
  6
BYBLOCK
 62
     0
 10
135.04457023340831
 20
138.2525899806005
 30
0.0
 11
132.04457023340831
 21
138.2525899806005
 31
0.0
  0
LINE
  5
2AF
  8
0
  6
BYBLOCK
 62
     0
 10
160.04457023340831
 20
138.2525899806005
 30
0.0
 11
163.04457023340831
 21
138.2525899806005
 31
0.0
  0
SOLID
  5
2B0
  8
0
  6
BYBLOCK
 62
     0
 10
135.04457023340831
 20
138.7525899806005
 30
0.0
 11
135.04457023340831
 21
137.7525899806005
 31
0.0
 12
138.04457023340831
 22
138.2525899806005
 32
0.0
 13
138.04457023340831
 23
138.2525899806005
 33
0.0
  0
SOLID
  5
2B1
  8
0
  6
BYBLOCK
 62
     0
 10
160.04457023340831
 20
138.7525899806005
 30
0.0
 11
160.04457023340831
 21
137.7525899806005
 31
0.0
 12
157.04457023340831
 22
138.2525899806005
 32
0.0
 13
157.04457023340831
 23
138.2525899806005
 33
0.0
  0
INSERT
  5
2B2
  8
0
  2
*U38
 10
0.0
 20
0.0
 30
0.0
  0
POINT
  5
2B3
  8
DEFPOINTS
  6
BYBLOCK
 62
     0
 10
138.04457023340831
 20
157.35614465295609
 30
0.0
  0
POINT
  5
2B4
  8
DEFPOINTS
  6
BYBLOCK
 62
     0
 10
157.04457023340831
 20
159.35614465295609
 30
0.0
  0
POINT
  5
2B5
  8
DEFPOINTS
  6
BYBLOCK
 62
     0
 10
157.04457023340831
 20
138.2525899806005
 30
0.0
  0
ENDBLK
  5
2B7
  8
0
  0
BLOCK
  8
0
  2
*D32
 70
     1
 10
0.0
 20
0.0
 30
0.0
  3
*D32
  1

  0
LINE
  5
276
  8
0
  6
BYBLOCK
 62
     0
 10
146.34053547299931
 20
189.50622237807571
 30
0.0
 11
126.4580556642608
 21
177.460494620346
 31
0.0
  0
SOLID
  5
277
  8
0
  6
BYBLOCK
 62
     0
 10
146.08145162982831
 20
189.93386190174931
 30
0.0
 11
146.59961931617019
 21
189.07858285440221
 31
0.0
 12
148.90637261504071
 22
191.0607254371015
 32
0.0
 13
148.90637261504071
 23
191.0607254371015
 33
0.0
  0
INSERT
  5
278
  8
0
  2
*U37
 10
0.0
 20
0.0
 30
0.0
  0
LINE
  5
279
  8
0
  6
BYBLOCK
 62
     0
 10
150.95457023340859
 20
192.3561446529564
 30
0.0
 11
151.1345702334086
 21
192.3561446529564
 31
0.0
  0
LINE
  5
27A
  8
0
  6
BYBLOCK
 62
     0
 10
151.04457023340859
 20
192.26614465295631
 30
0.0
 11
151.04457023340859
 21
192.44614465295641
 31
0.0
  0
POINT
  5
27B
  8
DEFPOINTS
  6
BYBLOCK
 62
     0
 10
148.90637261504071
 20
191.0607254371015
 30
0.0
  0
POINT
  5
27C
  8
DEFPOINTS
  6
BYBLOCK
 62
     0
 10
153.18276785177659
 20
193.65156386881119
 30
0.0
  0
ENDBLK
  5
27E
  8
0
  0
BLOCK
  8
0
  2
*U33
 70
     1
 10
0.0
 20
0.0
 30
0.0
  3
*U33
  1

  0
TEXT
  5
303
  8
0
 62
     0
 10
64.21331886469801
 20
270.99489785374368
 30
0.0
 40
2.5
  1
38±0.3
  0
ENDBLK
  5
305
  8
0
  0
BLOCK
  8
0
  2
*U34
 70
     1
 10
0.0
 20
0.0
 30
0.0
  3
*U34
  1

  0
TEXT
  5
307
  8
0
 62
     0
 10
96.254985531364682
 20
242.53686606788651
 30
0.0
 40
2.5
  1
8±0.2
  0
ENDBLK
  5
309
  8
0
  0
BLOCK
  8
0
  2
*U35
 70
     1
 10
0.0
 20
0.0
 30
0.0
  3
*U35
  1

  0
TEXT
  5
30B
  8
0
 62
     0
 10
170.57061292895071
 20
173.8144779862894
 30
0.0
 40
2.5
  1
25±0.3
 50
90.0
  0
ENDBLK
  5
30D
  8
0
  0
BLOCK
  8
0
  2
*U36
 70
     1
 10
0.0
 20
0.0
 30
0.0
  3
*U36
  1

  0
TEXT
  5
30F
  8
0
 62
     0
 10
148.72030938080641
 20
228.3561446529562
 30
0.0
 40
2.5
  1
3±0.2
 50
90.0
  0
ENDBLK
  5
311
  8
0
  0
BLOCK
  8
0
  2
*U37
 70
     1
 10
0.0
 20
0.0
 30
0.0
  3
*U37
  1

  0
TEXT
  5
313
  8
0
 62
     0
 10
126.7951670252661
 20
178.83394135403509
 30
0.0
 40
2.5
  1
\U+22055±0.2
 50
31.20942358530672
  0
ENDBLK
  5
315
  8
0
  0
BLOCK
  8
0
  2
*U38
 70
     1
 10
0.0
 20
0.0
 30
0.0
  3
*U38
  1

  0
TEXT
  5
317
  8
0
 62
     0
 10
141.91957023340831
 20
139.2525899806005
 30
0.0
 40
2.5
  1
19±0.2
  0
ENDBLK
  5
319
  8
0
  0
ENDSEC
  0
SECTION
  2
ENTITIES
  0
INSERT
  5
1D
  8
0
  2
SQ-A4
 10
10.50000000000003
 20
7.4250000000000114
 30
0.0
 41
0.9
 42
0.95
 43
0.9
  0
TEXT
  5
DF
  8
0
 10
48.955099770510941
 20
40.97153016707211
 30
0.0
 40
2.3999999999999999
  1
01  x8Cr17 rif. UNI 6902-71
  7
ROMANS
  0
ARC
  5
E0
  8
0
 10
86.254985531364682
 20
210.35614465295609
 30
0.0
 40
1.0
 50
180.0
 51
270.0
  0
ARC
  5
E1
  8
0
 10
86.254985531364682
 20
216.35614465295609
 30
0.0
 40
1.0
 50
90.0
 51
180.0
  0
TEXT
  5
E2
  8
0
 10
51.518621944191842
 20
59.782723553590522
 30
0.0
 40
2.5
  1
PIASTRINA INOX PER 340/344/543
  7
ROMANS
  0
LINE
  5
E3
  8
0
 10
0.0
 20
0.0
 30
0.0
 11
210.0
 21
0.0
 31
0.0
  0
LINE
  5
E4
  8
0
 10
210.0
 20
297.0
 30
0.0
 11
0.0
 21
297.0
 31
0.0
  0
DIMENSION
  5
E5
  8
Q
  2
*D13
 10
70.858954989838793
 20
215.99638500722369
 30
0.0
 11
76.842034540253792
 21
215.75336907751969
 31
0.0
 12
0.0
 22
-3.3106565629953759
 32
0.0
 70
   130
 13
80.735879440920129
 23
201.9784309043543
 33
0.0
 14
80.735879440920129
 24
196.09478223661091
 34
0.0
 15
77.806947252785633
 25
209.0494987162198
 35
0.0
 16
78.752773033220635
 26
215.75336907751969
 36
0.0
1001
ACAD
1000
DSTYLE
1002
{
1070
    79
1070
     2
1070
   179
1070
     4
1002
}
  0
DIMENSION
  5
F5
  8
Q
  2
*D12
 10
74.9851321217551
 20
198.58553212616081
 30
0.0
 11
81.937338362873817
 21
178.82682920766041
 31
0.0
 12
0.0
 22
-3.3106565629953759
 32
0.0
 70
   130
 13
82.254985531364682
 23
157.35614465295609
 33
0.0
 14
82.254985531364682
 24
164.82020998796611
 34
0.0
 15
82.254985531364682
 25
157.35614465295609
 35
0.0
 16
81.809955326792647
 26
174.62484320671859
 36
0.0
1001
ACAD
1000
DSTYLE
1002
{
1070
    79
1070
     2
1070
   179
1070
     4
1002
}
  0
DIMENSION
  5
104
  8
Q
  2
*D11
 10
89.254985531364696
 20
140.13960010409701
 30
0.0
 11
96.178318864698014
 21
142.63960010409701
 31
0.0
 12
0.0
 22
-3.3106565629953759
 32
0.0
 13
87.254985531364682
 23
157.35614465295609
 33
0.0
 14
89.254985531364696
 24
217.35614465295609
 34
0.0
  0
DIMENSION
  5
113
  8
Q
  2
*D10
 10
87.254985531364682
 20
148.13960010409701
 30
0.0
 11
94.178318864698014
 21
150.63960010409701
 31
0.0
 12
0.0
 22
-3.3106565629953759
 32
0.0
 13
82.254985531364682
 23
157.35614465295609
 33
0.0
 14
87.254985531364682
 24
157.35614465295609
 34
0.0
  0
DIMENSION
  5
122
  8
Q
  2
*D9
 10
87.254985531364682
 20
203.2747451945925
 30
0.0
 11
94.178318864698014
 21
205.7747451945925
 31
0.0
 12
0.0
 22
-3.3106565629953759
 32
0.0
 13
85.254985531364682
 23
209.35614465295609
 33
0.0
 14
87.254985531364682
 24
209.35614465295609
 34
0.0
  0
DIMENSION
  5
131
  8
Q
  2
*D27
 10
89.254985531364696
 20
269.99489785374368
 30
0.0
 11
70.254985531364682
 21
272.24489785374368
 31
0.0
  1
{<>%%P0.3}
 13
51.254985531364682
 23
223.35614465295609
 33
0.0
 14
89.254985531364696
 24
223.35614465295609
 34
0.0
1001
ACAD
1000
DSTYLE
1002
{
1070
   147
1040
1.0
1002
}
  0
DIMENSION
  5
13E
  8
Q
  2
*D5
 10
81.254985531364682
 20
262.55710642066282
 30
0.0
 11
87.341736174555066
 21
265.05710642066282
 31
0.0
 12
0.0
 22
11.50012050572562
 32
0.0
 70
   128
 13
79.254985531364682
 23
223.35614465295609
 33
0.0
 14
81.254985531364682
 24
223.35614465295609
 34
0.0
  0
DIMENSION
  5
14C
  8
Q
  2
*D28
 10
89.254985531364696
 20
241.53686606788651
 30
0.0
 11
101.0466521980313
 21
243.78686606788651
 31
0.0
  1
{<>%%P0.2}
 13
81.254985531364682
 23
223.35614465295609
 33
0.0
 14
89.254985531364696
 24
223.35614465295609
 34
0.0
1001
ACAD
1000
DSTYLE
1002
{
1070
   147
1040
1.0
1002
}
  0
LINE
  5
15A
  8
0
  6
HIDDEN
 10
81.254985531364682
 20
220.35614465295609
 30
0.0
 11
89.254985531364696
 21
220.35614465295609
 31
0.0
  0
LINE
  5
15C
  8
0
 10
81.254985531364682
 20
223.35614465295609
 30
0.0
 11
89.254985531364696
 21
223.35614465295609
 31
0.0
  0
LINE
  5
15D
  8
0
 10
83.933184793719249
 20
157.35614465295609
 30
0.0
 11
87.254985531364682
 21
157.35614465295609
 31
0.0
  0
LINE
  5
15E
  8
0
 10
0.0
 20
297.0
 30
0.0
 11
0.0
 21
0.0
 31
0.0
  0
CIRCLE
  5
15F
  8
0
 10
51.325923272059747
 20
42.007655070984811
 30
0.0
 40
3.1638551893991709
  0
LINE
  5
160
  8
0
 10
29.598846628491941
 20
101.9444609546631
 30
0.0
 11
56.502594232059629
 21
101.9444609546631
 31
0.0
  0
TEXT
  5
161
  8
0
 10
31.548392790172489
 20
104.2830047023559
 30
0.0
 40
3.0
  1
SCALA 1:1
  0
LINE
  5
162
  8
0
 10
29.598848315062341
 20
90.251739865864181
 30
0.0
 11
71.709063027989004
 21
90.251739865864181
 31
0.0
  0
TEXT
  5
163
  8
0
 10
31.548394476742889
 20
92.980042080006797
 30
0.0
 40
3.0
  1
SPESSORE mm. 1.2
  0
TEXT
  5
164
  8
0
 10
43.50371286312869
 20
39.753265961212577
 30
0.0
 40
2.5
  1
4052.DWG
 50
90.0
  7
ROMANS
  0
LINE
  5
165
  8
0
 10
0.0
 20
148.5
 30
0.0
 11
12.545877848214801
 21
148.5
 31
0.0
  0
DIMENSION
  5
166
  8
Q
  2
*D15
 10
69.363237209040008
 20
205.912128219858
 30
0.0
 11
37.887621245607079
 21
217.4956256882254
 31
0.0
 12
0.0
 22
-3.3106565629953759
 32
0.0
 70
   130
 13
51.254985531364682
 23
214.35614465295609
 33
0.0
 14
55.76740529123326
 24
214.35614465295609
 34
0.0
 15
51.254985531364682
 25
214.35614465295609
 35
0.0
 16
38.658301653162098
 26
218.3430438102618
 36
0.0
1001
ACAD
1000
DSTYLE
1002
{
1070
    79
1070
     2
1070
   179
1070
     4
1002
}
  0
DIMENSION
  5
176
  8
Q
  2
*D14
 10
29.410136762501931
 20
214.35614465295609
 30
0.0
 11
26.910136762501931
 21
218.85614465295609
 31
0.0
 12
0.0
 22
-3.3106565629953759
 32
0.0
 13
51.254985531364682
 23
223.35614465295609
 33
0.0
 14
51.254985531364682
 24
214.35614465295609
 34
0.0
 50
90.0
  0
LINE
  5
183
  8
0
 10
59.254985531364682
 20
223.35614465295609
 30
0.0
 11
59.254985531364667
 21
220.35614465295609
 31
0.0
  0
LINE
  5
184
  8
0
 10
61.254985531364682
 20
223.35614465295609
 30
0.0
 11
61.254985531364667
 21
220.35614465295609
 31
0.0
  0
LINE
  5
185
  8
0
 10
69.254985531364682
 20
223.35614465295609
 30
0.0
 11
69.254985531364682
 21
220.35614465295609
 31
0.0
  0
LINE
  5
186
  8
0
 10
71.254985531364682
 20
223.35614465295609
 30
0.0
 11
71.254985531364682
 21
220.35614465295609
 31
0.0
  0
LINE
  5
187
  8
0
 10
79.254985531364682
 20
223.35614465295609
 30
0.0
 11
79.254985531364682
 21
220.35614465295609
 31
0.0
  0
LINE
  5
188
  8
0
 10
81.254985531364682
 20
223.35614465295609
 30
0.0
 11
81.254985531364682
 21
220.35614465295609
 31
0.0
  0
LINE
  5
189
  8
0
 10
51.254985531364682
 20
223.35614465295609
 30
0.0
 11
51.254985531364682
 21
215.6302851745711
 31
0.0
  0
DIMENSION
  5
18A
  8
Q
  2
*D24
 10
53.254985531364682
 20
215.6302851745711
 30
0.0
 11
44.359102520856538
 21
210.09765681415641
 31
0.0
 12
0.0
 22
-3.3106565629953759
 32
0.0
 70
     4
 15
51.857782617801689
 25
214.1992631557568
 35
0.0
 40
5.8010944868603467
  0
LINE
  5
196
  8
0
 10
81.963569287694838
 20
159.00884829762219
 30
0.0
 11
74.9851321217551
 21
198.58553212616081
 31
0.0
  0
DIMENSION
  5
197
  8
Q
  2
*D23
 10
83.933184793719249
 20
159.35614465295609
 30
0.0
 11
71.79261076353167
 21
148.37946197427749
 31
0.0
 12
0.0
 22
-3.3106565629953759
 32
0.0
 70
     4
 15
82.671936751968602
 25
157.803967672976
 35
0.0
 40
12.00168136251362
  0
LINE
  5
1A3
  8
Q
 10
82.254985531364682
 20
157.35614465295609
 30
0.0
 11
82.254985531364682
 21
164.82020998796611
 31
0.0
  0
ARC
  5
1A4
  8
0
 10
83.933184793719249
 20
159.35614465295609
 30
0.0
 40
2.0
 50
190.0
 51
270.0
  0
ARC
  5
1A5
  8
0
 10
69.621518122762311
 20
214.7589481401472
 30
0.0
 40
1.7500000000000271
 50
45.000000000000327
 51
224.9999999999996
  0
LINE
  5
1A6
  8
0
  6
HIDDEN
 10
61.254985531364667
 20
220.35614465295609
 30
0.0
 11
69.254985531364682
 21
220.35614465295609
 31
0.0
  0
LINE
  5
1A7
  8
0
 10
52.409749007883271
 20
213.81766960049779
 30
0.0
 11
69.363237209040008
 21
205.912128219858
 31
0.0
  0
LINE
  5
1A8
  8
0
 10
51.254985531364682
 20
220.35614465295609
 30
0.0
 11
61.254985531364667
 21
220.35614465295609
 31
0.0
  0
ARC
  5
1A9
  8
0
 10
53.254985531364682
 20
215.6302851745711
 30
0.0
 40
2.0
 50
180.0
 51
245.0000000000033
  0
LINE
  5
1AA
  8
0
 10
77.235879440920129
 20
200.52868343604851
 30
0.0
 11
77.235879440920129
 21
196.09478223661091
 31
0.0
  0
LINE
  5
1AB
  8
0
 10
80.735879440920129
 20
201.9784309043543
 30
0.0
 11
80.735879440920129
 21
196.09478223661091
 31
0.0
  0
ARC
  5
1AC
  8
0
 10
78.985879440920144
 20
196.09478223661091
 30
0.0
 40
1.7499999999999849
 50
180.0
 51
0.0
  0
ARC
  5
1AD
  8
0
 10
67.235879440920129
 20
200.52868343604851
 30
0.0
 40
10.0
 50
0.0
 51
44.999999999999872
  0
LINE
  5
1AE
  8
0
 10
77.806947252785633
 20
209.0494987162198
 30
0.0
 11
70.858954989838793
 21
215.99638500722369
 31
0.0
  0
LINE
  5
1AF
  8
0
 10
69.254985531364682
 20
220.35614465295609
 30
0.0
 11
81.254985531364682
 21
220.35614465295609
 31
0.0
  0
LINE
  5
1B0
  8
0
 10
74.306947252785619
 20
207.5997512479139
 30
0.0
 11
68.384081255685857
 21
213.52151127307079
 31
0.0
  0
ARC
  5
1B1
  8
0
 10
65.137054591633003
 20
196.84905034949151
 30
0.0
 40
10.0
 50
9.9999999999999893
 51
65.00000000000324
  0
ARC
  5
1B2
  8
0
 10
70.735879440920129
 20
201.9784309043543
 30
0.0
 40
10.0
 50
0.0
 51
44.999999999999822
  0
LINE
  5
1B3
  8
0
 10
85.254985531364682
 20
216.35614465295609
 30
0.0
 11
85.254985531364682
 21
210.35614465295609
 31
0.0
  0
DIMENSION
  5
1B4
  8
Q
  2
*D4
 10
71.254985531364682
 20
253.71089296328731
 30
0.0
 11
77.422331122262051
 21
256.21089296328728
 31
0.0
 12
0.0
 22
11.50012050572562
 32
0.0
 70
   128
 13
69.254985531364682
 23
223.35614465295609
 33
0.0
 14
71.254985531364682
 24
223.35614465295609
 34
0.0
  0
DIMENSION
  5
1C2
  8
Q
  2
*D3
 10
61.254985531364682
 20
243.989781262609
 30
0.0
 11
67.600174309903181
 21
246.489781262609
 31
0.0
 12
0.0
 22
11.50012050572562
 32
0.0
 70
   128
 13
59.254985531364682
 23
223.35614465295609
 33
0.0
 14
61.254985531364682
 24
223.35614465295609
 34
0.0
  0
DIMENSION
  5
1D0
  8
Q
  2
*D1
 10
69.254985531364682
 20
234.36587708292441
 30
0.0
 11
65.254985531364682
 21
236.8658770829243
 31
0.0
 12
0.0
 22
11.50012050572562
 32
0.0
 13
61.254985531364682
 23
223.35614465295609
 33
0.0
 14
69.254985531364682
 24
223.35614465295609
 34
0.0
  0
LINE
  5
1DD
  8
0
 10
61.254985531364682
 20
223.35614465295609
 30
0.0
 11
69.254985531364682
 21
223.35614465295609
 31
0.0
  0
DIMENSION
  5
1DE
  8
Q
  2
*D0
 10
59.254985531364682
 20
234.36587708292441
 30
0.0
 11
55.254985531364682
 21
236.8658770829243
 31
0.0
 12
0.0
 22
11.50012050572562
 32
0.0
 13
51.254985531364682
 23
223.35614465295609
 33
0.0
 14
59.254985531364682
 24
223.35614465295609
 34
0.0
  0
LINE
  5
1EB
  8
0
 10
51.254985531364682
 20
223.35614465295609
 30
0.0
 11
59.254985531364682
 21
223.35614465295609
 31
0.0
  0
DIMENSION
  5
1EC
  8
Q
  2
*D2
 10
79.254985531364682
 20
234.36587708292441
 30
0.0
 11
75.254985531364682
 21
236.8658770829243
 31
0.0
 12
0.0
 22
11.50012050572562
 32
0.0
 13
71.254985531364682
 23
223.35614465295609
 33
0.0
 14
79.254985531364682
 24
223.35614465295609
 34
0.0
  0
LINE
  5
1F9
  8
0
 10
71.254985531364682
 20
223.35614465295609
 30
0.0
 11
79.254985531364682
 21
223.35614465295609
 31
0.0
  0
TEXT
  5
1FA
  8
0
 10
182.3358038547274
 20
73.643730429038527
 30
0.0
 40
2.5
  1
02 VARIATO SPESSORE PIASTRINA E AGGIUNTO TOLLERANZE IN DATA 27.08.2001 (CM)
 50
90.0
  7
ROMANS
  0
TEXT
  5
1FB
  8
0
 10
189.7644542452083
 20
73.643730429038527
 30
0.0
 40
2.5
  1
00 Emissione disegno li 25.10.94 br
 50
90.0
  7
ROMANS
  0
TEXT
  5
1FC
  8
0
 10
186.35583719451759
 20
73.643730429038527
 30
0.0
 40
2.5
  1
01 Aggiunto qualita' acciaio li 8.9.95 rb
 50
90.0
  7
ROMANS
  0
LINE
  5
1FD
  8
0
 10
210.0
 20
0.0
 30
0.0
 11
210.0
 21
297.0
 31
0.0
  0
LINE
  5
1FE
  8
0
 10
131.0045060276048
 20
125.9734108573747
 30
0.0
 11
131.00450602760489
 21
120.9734108573748
 31
0.0
  0
ARC
  5
1FF
  8
0
 10
133.00450602760489
 20
120.9734108573748
 30
0.0
 40
2.0
 50
90.0
 51
180.00000000000011
  0
LINE
  5
200
  8
0
 10
125.0045060276049
 20
125.9734108573747
 30
0.0
 11
125.0045060276049
 21
117.9734108573748
 31
0.0
  0
ATTDEF
  5
201
  8
0
 10
148.1687828449252
 20
66.642634294844413
 30
0.0
 40
2.3999999999999999
  1

  3
data
  2
25.10.94
 70
     4
  0
TEXT
  5
202
  8
0
 10
126.73545579134959
 20
59.166431958771632
 30
0.0
 40
2.5
  1
TP
  7
ROMANS
  0
TEXT
  5
203
  8
0
 10
126.8895900941454
 20
66.253777377150485
 30
0.0
 40
2.5
  1
1:1
  7
ROMANS
  0
LINE
  5
204
  8
0
 10
130.0045060276048
 20
97.973410857374745
 30
0.0
 11
130.00450602760489
 21
87.973410857374759
 31
0.0
  0
LINE
  5
205
  8
0
 10
131.00450602760489
 20
107.9734108573748
 30
0.0
 11
131.00450602760489
 21
95.973410857374773
 31
0.0
  0
LINE
  5
206
  8
0
 10
130.00450602760489
 20
87.973410857374759
 30
0.0
 11
136.00450602760489
 21
87.973410857374759
 31
0.0
  0
LINE
  5
207
  8
0
 10
131.00450602760489
 20
95.973410857374773
 30
0.0
 11
136.00450602760489
 21
95.973410857374773
 31
0.0
  0
LINE
  5
208
  8
0
 10
136.00450602760489
 20
95.973410857374773
 30
0.0
 11
136.00450602760489
 21
87.973410857374759
 31
0.0
  0
LINE
  5
209
  8
0
 10
130.0045060276048
 20
117.9734108573748
 30
0.0
 11
130.0045060276048
 21
105.9734108573747
 31
0.0
  0
LINE
  5
20A
  8
0
 10
125.0045060276049
 20
97.973410857374773
 30
0.0
 11
130.0045060276048
 21
97.973410857374745
 31
0.0
  0
LINE
  5
20B
  8
0
 10
125.0045060276049
 20
105.9734108573747
 30
0.0
 11
130.0045060276048
 21
105.9734108573747
 31
0.0
  0
LINE
  5
20C
  8
0
 10
125.0045060276049
 20
105.9734108573747
 30
0.0
 11
125.0045060276049
 21
97.973410857374773
 31
0.0
  0
LINE
  5
20D
  8
0
 10
125.0045060276049
 20
117.9734108573748
 30
0.0
 11
130.0045060276048
 21
117.9734108573748
 31
0.0
  0
LINE
  5
20E
  8
0
 10
136.00450602760489
 20
115.9734108573748
 30
0.0
 11
136.00450602760489
 21
107.9734108573747
 31
0.0
  0
LINE
  5
20F
  8
0
 10
131.00450602760489
 20
107.9734108573747
 30
0.0
 11
136.00450602760489
 21
107.9734108573747
 31
0.0
  0
LINE
  5
210
  8
0
 10
131.00450602760489
 20
115.9734108573748
 30
0.0
 11
136.00450602760489
 21
115.9734108573748
 31
0.0
  0
LINE
  5
211
  8
0
 10
131.00450602760489
 20
120.9734108573748
 30
0.0
 11
131.00450602760489
 21
115.9734108573748
 31
0.0
  0
TEXT
  5
212
  8
0
 10
163.41908047348431
 20
24.6541366005067
 30
0.0
 40
5.0
  1
4052
  7
ROMANS
  0
DIMENSION
  5
213
  8
Q
  2
*D20
 10
147.00450602760489
 20
159.35614465295609
 30
0.0
 11
161.80082731405321
 21
149.6899630056989
 31
0.0
 12
-8.0400642058034464
 22
-3.3106565629953759
 32
0.0
 70
     4
 15
148.50731651649701
 25
158.0364626327422
 35
0.0
 40
13.3228431418162
  0
DIMENSION
  5
21F
  8
Q
  2
*D16
 10
132.00450602760489
 20
207.91128092428519
 30
0.0
 11
165.8827896440522
 21
201.1463684366058
 31
0.0
 12
-8.0400642058034464
 22
-3.3106565629953759
 32
0.0
 70
   130
 13
149.00450602760489
 23
203.35614465295609
 33
0.0
 14
144.8148985227632
 24
203.35614465295609
 34
0.0
 15
149.00450602760489
 25
203.35614465295609
 35
0.0
 16
164.04190636442021
 26
201.24859862430711
 36
0.0
1001
ACAD
1000
DSTYLE
1002
{
1070
    79
1070
     2
1070
   179
1070
     4
1002
}
  0
DIMENSION
  5
22F
  8
Q
  2
*D17
 10
171.91679712422109
 20
203.35614465295609
 30
0.0
 11
169.41679712422109
 21
180.35614465295609
 31
0.0
 12
-8.0400642058034464
 22
-3.3106565629953759
 32
0.0
 13
147.6320600662105
 23
157.35614465295609
 33
0.0
 14
149.00450602760489
 24
203.35614465295609
 34
0.0
 50
90.0
  0
DIMENSION
  5
23C
  8
Q
  2
*D30
 10
163.53054872314729
 20
192.35614465295609
 30
0.0
 11
161.28054872314729
 21
179.85614465295609
 31
0.0
 12
-8.0400642058034464
 22
0.0
 32
0.0
  1
{<>%%P0.3}
 13
143.00450602760489
 23
167.35614465295609
 33
0.0
 14
143.00450602760489
 24
192.35614465295609
 34
0.0
 50
90.0
1001
ACAD
1000
DSTYLE
1002
{
1070
   147
1040
1.0
1002
}
  0
DIMENSION
  5
249
  8
Q
  2
*D18
 10
163.53054872314729
 20
167.35614465295609
 30
0.0
 11
161.03054872314729
 21
162.35614465295609
 31
0.0
 12
-8.0400642058034464
 22
-3.3106565629953759
 32
0.0
 13
147.6320600662105
 23
157.35614465295609
 33
0.0
 14
143.00450602760489
 24
167.35614465295609
 34
0.0
 50
90.0
  0
DIMENSION
  5
256
  8
Q
  2
*D29
 10
141.68024517500299
 20
220.3561446529562
 30
0.0
 11
141.68024517500299
 21
233.1478113196228
 31
0.0
 12
-8.0400642058034464
 22
0.0
 32
0.0
 70
   128
  1
{<>%%P0.2}
 13
133.00450602760489
 23
223.3561446529562
 33
0.0
 14
136.00450602760489
 24
220.3561446529562
 34
0.0
 50
90.0
1001
ACAD
1000
DSTYLE
1002
{
1070
   147
1040
1.0
1002
}
  0
DIMENSION
  5
264
  8
Q
  2
*D8
 10
111.45105674895549
 20
223.35614465295609
 30
0.0
 11
108.95105674895549
 21
190.35614465295609
 31
0.0
 12
0.0
 22
-3.3106565629953759
 32
0.0
 13
87.254985531364682
 23
157.35614465295609
 33
0.0
 14
89.254985531364696
 24
223.35614465295609
 34
0.0
 50
90.0
  0
ARC
  5
271
  8
0
 10
128.00450602760489
 20
220.3561446529562
 30
0.0
 40
3.0
 50
33.557309761920529
 51
180.0
  0
ARC
  5
272
  8
0
 10
133.00450602760489
 20
220.3561446529562
 30
0.0
 40
3.0
 50
0.0
 51
180.0
  0
LINE
  5
273
  8
0
 10
89.254985531364696
 20
223.35614465295609
 30
0.0
 11
89.254985531364696
 21
217.35614465295609
 31
0.0
  0
DIMENSION
  5
274
  8
Q
  2
*D32
 10
145.14270364597311
 20
193.65156386881119
 30
0.0
 11
124.4405814168603
 21
181.10925874500381
 31
0.0
 12
-8.0400642058034464
 22
0.0
 32
0.0
 70
   131
  1
{<>%%P0.2}
 15
140.86630840923721
 25
191.0607254371015
 35
0.0
 40
0.0
1001
ACAD
1000
DSTYLE
1002
{
1070
   147
1040
1.0
1002
}
  0
DIMENSION
  5
27F
  8
Q
  2
*D22
 10
128.00450602760489
 20
220.3561446529562
 30
0.0
 11
122.4059770661072
 21
212.7619830749305
 31
0.0
 12
-8.0400642058034464
 22
-3.3106565629953759
 32
0.0
 70
     4
 15
128.72230358076479
 25
222.22289762876139
 35
0.0
 40
-8.9241837238582296
  0
DIMENSION
  5
289
  8
Q
  2
*D6
 10
101.7288899460785
 20
209.35614465295609
 30
0.0
 11
99.228889946078553
 21
183.35614465295609
 31
0.0
 12
0.0
 22
-3.3106565629953759
 32
0.0
 13
87.254985531364682
 23
157.35614465295609
 33
0.0
 14
87.254985531364682
 24
209.35614465295609
 34
0.0
 50
90.0
  0
LINE
  5
296
  8
0
 10
86.254985531364682
 20
209.35614465295609
 30
0.0
 11
86.254985531364682
 21
157.35614465295609
 31
0.0
  0
LINE
  5
297
  8
0
 10
87.254985531364682
 20
209.35614465295609
 30
0.0
 11
87.254985531364682
 21
157.35614465295609
 31
0.0
  0
DIMENSION
  5
298
  8
Q
  2
*D7
 10
101.7288899460785
 20
217.35614465295609
 30
0.0
 11
99.228889946078553
 21
213.35614465295609
 31
0.0
 12
0.0
 22
-3.3106565629953759
 32
0.0
 13
87.254985531364682
 23
209.35614465295609
 33
0.0
 14
89.254985531364696
 24
217.35614465295609
 34
0.0
 50
90.0
  0
LINE
  5
2A5
  8
0
 10
86.254985531364682
 20
209.35614465295609
 30
0.0
 11
87.254985531364682
 21
209.35614465295609
 31
0.0
  0
LINE
  5
2A6
  8
0
 10
86.254985531364682
 20
217.35614465295609
 30
0.0
 11
89.254985531364696
 21
217.35614465295609
 31
0.0
  0
LINE
  5
2A7
  8
0
 10
131.00450602760489
 20
220.3561446529562
 30
0.0
 11
131.00450602760489
 21
157.35614465295609
 31
0.0
  0
LINE
  5
2A8
  8
0
 10
149.00450602760489
 20
201.8214906769982
 30
0.0
 11
149.00450602760489
 21
159.35614465295609
 31
0.0
  0
LINE
  5
2A9
  8
0
 10
130.00450602760489
 20
220.3561446529562
 30
0.0
 11
130.00450602760489
 21
157.35614465295609
 31
0.0
  0
DIMENSION
  5
2AA
  8
Q
  2
*D31
 10
149.00450602760489
 20
138.2525899806005
 30
0.0
 11
139.50450602760489
 21
140.5025899806005
 31
0.0
 12
-8.0400642058034464
 22
0.0
 32
0.0
  1
{<>%%P0.2}
 13
130.00450602760489
 23
157.35614465295609
 33
0.0
 14
149.00450602760489
 24
159.35614465295609
 34
0.0
1001
ACAD
1000
DSTYLE
1002
{
1070
   147
1040
1.0
1002
}
  0
DIMENSION
  5
2B8
  8
Q
  2
*D19
 10
149.00450602760489
 20
148.9576813399166
 30
0.0
 11
136.7475587999414
 21
151.45768133991649
 31
0.0
 12
-8.0400642058034464
 22
-3.3106565629953759
 32
0.0
 70
   128
 13
143.00450602760489
 23
167.35614465295609
 33
0.0
 14
149.00450602760489
 24
159.35614465295609
 34
0.0
  0
LINE
  5
2C6
  8
0
 10
133.00450602760489
 20
122.9734108573747
 30
0.0
 11
149.00450602760489
 21
122.9734108573747
 31
0.0
  0
LINE
  5
2C7
  8
0
 10
133.00450602760489
 20
123.9734108573747
 30
0.0
 11
149.00450602760489
 21
123.9734108573747
 31
0.0
  0
LINE
  5
2C8
  8
0
 10
130.00450602760489
 20
157.35614465295609
 30
0.0
 11
147.00450602760489
 21
157.35614465295609
 31
0.0
  0
LINE
  5
2C9
  8
0
 10
125.0045060276049
 20
125.9734108573747
 30
0.0
 11
131.0045060276048
 21
125.9734108573747
 31
0.0
  0
ARC
  5
2CA
  8
0
 10
133.00450602760489
 20
120.9734108573748
 30
0.0
 40
3.0
 50
90.0
 51
131.81031489577919
  0
LINE
  5
2CB
  8
0
 10
149.00450602760489
 20
123.9734108573747
 30
0.0
 11
149.00450602760489
 21
122.9734108573747
 31
0.0
  0
ARC
  5
2CC
  8
0
 10
147.00450602760489
 20
159.35614465295609
 30
0.0
 40
2.0
 50
270.0
 51
0.0
  0
CIRCLE
  5
2CD
  8
0
 10
143.00450602760489
 20
167.35614465295609
 30
0.0
 40
2.5
  0
LINE
  5
2CE
  8
0
 10
147.52214411780989
 20
203.75334232957641
 30
0.0
 11
132.00450602760489
 21
207.91128092428519
 31
0.0
  0
LINE
  5
2CF
  8
0
 10
132.00450602760489
 20
215.5089481401472
 30
0.0
 11
132.00450602760489
 21
195.344782236611
 31
0.0
  0
ARC
  5
2D0
  8
0
 10
131.00450602760489
 20
195.344782236611
 30
0.0
 40
1.0
 50
270.0
 51
0.0
  0
LINE
  5
2D1
  8
0
 10
130.00450602760489
 20
214.356144652956
 30
0.0
 11
131.00450602760489
 21
214.356144652956
 31
0.0
  0
LINE
  5
2D2
  8
0
 10
126.0045060276049
 20
220.3561446529562
 30
0.0
 11
125.0045060276049
 21
220.3561446529562
 31
0.0
  0
ARC
  5
2D3
  8
0
 10
128.00450602760489
 20
220.3561446529562
 30
0.0
 40
2.0
 50
0.0
 51
180.0
  0
ARC
  5
2D4
  8
0
 10
133.00450602760489
 20
220.3561446529562
 30
0.0
 40
2.0
 50
0.0
 51
180.0
  0
ARC
  5
2D5
  8
0
 10
131.00450602760489
 20
215.5089481401472
 30
0.0
 40
1.0
 50
0.0
 51
90.0
  0
LINE
  5
2D6
  8
0
 10
135.00450602760489
 20
220.3561446529562
 30
0.0
 11
136.00450602760489
 21
220.3561446529562
 31
0.0
  0
CIRCLE
  5
2D7
  8
0
 10
143.00450602760489
 20
192.35614465295609
 30
0.0
 40
2.5
  0
DIMENSION
  5
2D8
  8
Q
  2
*D21
 10
147.00450602760489
 20
201.8214906769982
 30
0.0
 11
153.26956932800169
 21
211.08971985964371
 31
0.0
 12
-8.0400642058034464
 22
-3.3106565629953759
 32
0.0
 70
     4
 15
148.46651384484031
 25
203.18623722575461
 35
0.0
 40
6.7308443220434908
  0
ARC
  5
2E4
  8
0
 10
147.00450602760489
 20
201.8214906769982
 30
0.0
 40
2.0
 50
0.0
 51
75.000000000000043
  0
LINE
  5
2E5
  8
0
  6
CONTINUOUS
 10
147.00450602760489
 20
201.73149067699819
 30
0.0
 11
147.00450602760489
 21
201.9114906769982
 31
0.0
  0
LINE
  5
2E6
  8
0
  6
CONTINUOUS
 10
146.91450602760489
 20
201.8214906769982
 30
0.0
 11
147.09450602760489
 21
201.8214906769982
 31
0.0
  0
ENDSEC
  0
EOF
