  0
SECTION
  2
HEADER
  9
$ACADVER
  1
AC1009
  9
$INSBASE
 10
4711.0756463229709
 20
-5405.4051068608997
 30
0.0
  9
$EXTMIN
 10
4081.0756463229709
 20
-5405.4051068608997
 30
0.0
  9
$EXTMAX
 10
4711.0756463229709
 20
-4959.9051068609006
 30
0.0
  9
$LIMMIN
 10
0.0
 20
0.0
  9
$LIMMAX
 10
420.0
 20
297.0
  9
$ORTHOMODE
 70
     0
  9
$REGENMODE
 70
     1
  9
$FILLMODE
 70
     1
  9
$QTEXTMODE
 70
     0
  9
$MIRRTEXT
 70
     1
  9
$DRAGMODE
 70
     2
  9
$LTSCALE
 40
0.5
  9
$OSMODE
 70
    37
  9
$ATTMODE
 70
     1
  9
$TEXTSIZE
 40
2.5
  9
$TRACEWID
 40
1.0
  9
$TEXTSTYLE
  7
ESTILO1
  9
$CLAYER
  8
Q
  9
$CELTYPE
  6
BYLAYER
  9
$CECOLOR
 62
   256
  9
$DIMSCALE
 40
3.0
  9
$DIMASZ
 40
3.0
  9
$DIMEXO
 40
1.0
  9
$DIMDLI
 40
1.0
  9
$DIMRND
 40
0.0
  9
$DIMDLE
 40
0.0
  9
$DIMEXE
 40
1.0
  9
$DIMTP
 40
0.0
  9
$DIMTM
 40
0.0
  9
$DIMTXT
 40
3.0
  9
$DIMCEN
 40
2.5
  9
$DIMTSZ
 40
0.0
  9
$DIMTOL
 70
     0
  9
$DIMLIM
 70
     0
  9
$DIMTIH
 70
     0
  9
$DIMTOH
 70
     0
  9
$DIMSE1
 70
     0
  9
$DIMSE2
 70
     0
  9
$DIMTAD
 70
     1
  9
$DIMZIN
 70
     8
  9
$DIMBLK
  1

  9
$DIMASO
 70
     1
  9
$DIMSHO
 70
     1
  9
$DIMPOST
  1

  9
$DIMAPOST
  1

  9
$DIMALT
 70
     0
  9
$DIMALTD
 70
     3
  9
$DIMALTF
 40
0.03937007874016
  9
$DIMLFAC
 40
1.0
  9
$DIMTOFL
 70
     0
  9
$DIMTVP
 40
0.0
  9
$DIMTIX
 70
     0
  9
$DIMSOXD
 70
     0
  9
$DIMSAH
 70
     0
  9
$DIMBLK1
  1

  9
$DIMBLK2
  1

  9
$DIMSTYLE
  2
ISO-25
  9
$DIMCLRD
 70
     0
  9
$DIMCLRE
 70
     0
  9
$DIMCLRT
 70
   256
  9
$DIMTFAC
 40
1.0
  9
$DIMGAP
 40
1.0
  9
$LUNITS
 70
     2
  9
$LUPREC
 70
     4
  9
$SKETCHINC
 40
1.0
  9
$FILLETRAD
 40
1.1000000000000001
  9
$AUNITS
 70
     0
  9
$AUPREC
 70
     0
  9
$MENU
  1
.
  9
$ELEVATION
 40
0.0
  9
$PELEVATION
 40
0.0
  9
$THICKNESS
 40
0.0
  9
$LIMCHECK
 70
     0
  9
$BLIPMODE
 70
     0
  9
$CHAMFERA
 40
0.5
  9
$CHAMFERB
 40
0.5
  9
$SKPOLY
 70
     0
  9
$TDCREATE
 40
2452261.9026380782
  9
$TDUPDATE
 40
2453820.6623211349
  9
$TDINDWG
 40
30.944231863399999
  9
$TDUSRTIMER
 40
30.9442285648
  9
$USRTIMER
 70
     1
  9
$ANGBASE
 50
0.0
  9
$ANGDIR
 70
     0
  9
$PDMODE
 70
     0
  9
$PDSIZE
 40
0.0
  9
$PLINEWID
 40
0.0
  9
$COORDS
 70
     1
  9
$SPLFRAME
 70
     0
  9
$SPLINETYPE
 70
     6
  9
$SPLINESEGS
 70
     8
  9
$ATTDIA
 70
     0
  9
$ATTREQ
 70
     1
  9
$HANDLING
 70
     1
  9
$HANDSEED
  5
822
  9
$SURFTAB1
 70
     6
  9
$SURFTAB2
 70
     6
  9
$SURFTYPE
 70
     6
  9
$SURFU
 70
     6
  9
$SURFV
 70
     6
  9
$UCSNAME
  2

  9
$UCSORG
 10
0.0
 20
0.0
 30
0.0
  9
$UCSXDIR
 10
1.0
 20
0.0
 30
0.0
  9
$UCSYDIR
 10
0.0
 20
1.0
 30
0.0
  9
$PUCSNAME
  2

  9
$PUCSORG
 10
0.0
 20
0.0
 30
0.0
  9
$PUCSXDIR
 10
1.0
 20
0.0
 30
0.0
  9
$PUCSYDIR
 10
0.0
 20
1.0
 30
0.0
  9
$USERI1
 70
     0
  9
$USERI2
 70
     0
  9
$USERI3
 70
     0
  9
$USERI4
 70
     0
  9
$USERI5
 70
     0
  9
$USERR1
 40
0.0
  9
$USERR2
 40
0.0
  9
$USERR3
 40
0.0
  9
$USERR4
 40
0.0
  9
$USERR5
 40
0.0
  9
$WORLDVIEW
 70
     1
  9
$SHADEDGE
 70
     3
  9
$SHADEDIF
 70
    70
  9
$TILEMODE
 70
     1
  9
$MAXACTVP
 70
    48
  9
$PLIMCHECK
 70
     0
  9
$PEXTMIN
 10
1.0000000000000000E+020
 20
1.0000000000000000E+020
 30
1.0000000000000000E+020
  9
$PEXTMAX
 10
-1.0000000000000000E+020
 20
-1.0000000000000000E+020
 30
-1.0000000000000000E+020
  9
$PLIMMIN
 10
0.0
 20
0.0
  9
$PLIMMAX
 10
420.0
 20
297.0
  9
$UNITMODE
 70
     0
  9
$VISRETAIN
 70
     1
  9
$PLINEGEN
 70
     0
  9
$PSLTSCALE
 70
     1
  0
ENDSEC
  0
SECTION
  2
TABLES
  0
TABLE
  2
VPORT
 70
     2
  0
VPORT
  2
*ACTIVE
 70
     0
 10
0.0
 20
0.0
 11
1.0
 21
1.0
 12
4565.5519976847236
 22
-5198.3244007154517
 13
0.0
 23
0.0
 14
10.0
 24
10.0
 15
10.0
 25
10.0
 16
0.0
 26
0.0
 36
1.0
 17
0.0
 27
0.0
 37
0.0
 40
695.41528848934547
 41
2.1768219832735962
 42
50.0
 43
0.0
 44
0.0
 50
0.0
 51
0.0
 71
     0
 72
   100
 73
     1
 74
     3
 75
     0
 76
     0
 77
     0
 78
     2
  0
ENDTAB
  0
TABLE
  2
LTYPE
 70
     2
  0
LTYPE
  2
CONTINUOUS
 70
     0
  3
Solid line
 72
    65
 73
     0
 40
0.0
  0
LTYPE
  2
CENTER
 70
     0
  3
____ _ ____ _ ____ _ ____ _ ____ _ ____ _ ____ 
 72
    65
 73
     4
 40
2.0
 49
1.25
 49
-0.25
 49
0.25
 49
-0.25
  0
ENDTAB
  0
TABLE
  2
LAYER
 70
     4
  0
LAYER
  2
0
 70
     0
 62
     7
  6
CONTINUOUS
  0
LAYER
  2
Q
 70
     0
 62
     2
  6
CONTINUOUS
  0
LAYER
  2
TAB
 70
     0
 62
     2
  6
CONTINUOUS
  0
LAYER
  2
DEFPOINTS
 70
     0
 62
     7
  6
CONTINUOUS
  0
ENDTAB
  0
TABLE
  2
STYLE
 70
     4
  0
STYLE
  2
STANDARD
 70
     0
 40
0.0
 41
1.0
 50
0.0
 71
     0
 42
2.5
  3
txt
  4

  0
STYLE
  2
ESTILO1
 70
     0
 40
2.5
 41
1.0
 50
0.0
 71
     0
 42
2.5
  3
txt
  4

  0
STYLE
  2
ROMANS
 70
     0
 40
0.0
 41
1.0
 50
0.0
 71
     0
 42
3.0
  3
romans
  4

  0
STYLE
  2
MONOTXT
 70
     0
 40
0.0
 41
1.0
 50
0.0
 71
     0
 42
1.5
  3
monotxt
  4

  0
ENDTAB
  0
TABLE
  2
VIEW
 70
     0
  0
ENDTAB
  0
TABLE
  2
UCS
 70
     0
  0
ENDTAB
  0
TABLE
  2
APPID
 70
     2
  0
APPID
  2
ACAD
 70
     0
  0
APPID
  2
ACAD_PSEXT
 70
     0
  0
ENDTAB
  0
TABLE
  2
DIMSTYLE
 70
     1
  0
DIMSTYLE
  2
ISO-25
 70
     0
  3

  4

  5

  6

  7

 40
1.0
 41
2.5
 42
0.625
 43
3.75
 44
1.25
 45
0.0
 46
0.0
 47
0.0
 48
0.0
140
2.5
141
2.5
142
0.0
143
0.03937007874016
144
1.0
145
0.0
146
1.0
147
0.625
 71
     0
 72
     0
 73
     0
 74
     0
 75
     0
 76
     0
 77
     1
 78
     8
170
     0
171
     3
172
     1
173
     0
174
     0
175
     0
176
     0
177
     0
178
     0
  0
ENDTAB
  0
ENDSEC
  0
SECTION
  2
BLOCKS
  0
BLOCK
  8
0
  2
$MODEL_SPACE
 70
     0
 10
0.0
 20
0.0
 30
0.0
  3
$MODEL_SPACE
  1

  0
ENDBLK
  5
8
  8
0
  0
BLOCK
 67
     1
  8
0
  2
$PAPER_SPACE
 70
     0
 10
0.0
 20
0.0
 30
0.0
  3
$PAPER_SPACE
  1

  0
ENDBLK
  5
D
 67
     1
  8
0
  0
BLOCK
  8
0
  2
SQ-A3
 70
     0
 10
0.0
 20
0.0
 30
0.0
  3
SQ-A3
  1

  0
LINE
  5
26
  8
0
 10
30.25
 20
292.0
 30
0.0
 11
5.0
 21
292.0
 31
0.0
  0
LINE
  5
27
  8
0
 10
30.25
 20
292.0
 30
0.0
 11
415.0
 21
292.0
 31
0.0
  0
LINE
  5
28
  8
0
 10
415.0
 20
292.0
 30
0.0
 11
415.0
 21
6.0
 31
0.0
  0
LINE
  5
29
  8
0
 10
10.25
 20
292.0
 30
0.0
 11
5.0
 21
292.0
 31
0.0
  0
LINE
  5
2A
  8
0
 10
58.75
 20
292.0
 30
0.0
 11
58.75
 21
287.0
 31
0.0
  0
TEXT
  5
2B
  8
Q
 10
32.0
 20
288.0
 30
0.0
 40
3.0
  1
1
  7
ROMANS
  0
TEXT
  5
2C
  8
Q
 10
83.499999999999986
 20
288.0
 30
0.0
 40
3.0
  1
2
  7
ROMANS
  0
TEXT
  5
2D
  8
Q
 10
133.5
 20
288.0
 30
0.0
 40
3.0
  1
3
  7
ROMANS
  0
TEXT
  5
2E
  8
Q
 10
183.0
 20
288.0
 30
0.0
 40
3.0
  1
4
  7
ROMANS
  0
TEXT
  5
2F
  8
Q
 10
232.5
 20
288.0
 30
0.0
 40
3.0
  1
5
  7
ROMANS
  0
TEXT
  5
30
  8
Q
 10
284.5
 20
288.0
 30
0.0
 40
3.0
  1
6
  7
ROMANS
  0
TEXT
  5
31
  8
Q
 10
333.5
 20
288.25
 30
0.0
 40
3.0
  1
7
  7
ROMANS
  0
TEXT
  5
32
  8
Q
 10
384.0
 20
288.0
 30
0.0
 40
3.0
  1
8
  7
ROMANS
  0
LINE
  5
33
  8
0
 10
108.75
 20
292.0
 30
0.0
 11
108.75
 21
287.0
 31
0.0
  0
LINE
  5
34
  8
0
 10
158.75
 20
292.0
 30
0.0
 11
158.75
 21
287.0
 31
0.0
  0
LINE
  5
35
  8
0
 10
208.75
 20
292.0
 30
0.0
 11
208.75
 21
287.0
 31
0.0
  0
LINE
  5
36
  8
0
 10
258.75
 20
292.0
 30
0.0
 11
258.75
 21
287.0
 31
0.0
  0
LINE
  5
37
  8
0
 10
308.75
 20
292.0
 30
0.0
 11
308.75
 21
287.0
 31
0.0
  0
LINE
  5
38
  8
0
 10
358.75
 20
292.0
 30
0.0
 11
358.75
 21
287.0
 31
0.0
  0
LINE
  5
39
  8
0
 10
410.0
 20
287.0
 30
0.0
 11
410.0
 21
10.0
 31
0.0
  0
LINE
  5
3A
  8
0
 10
5.0
 20
292.0
 30
0.0
 11
5.0
 21
5.0
 31
0.0
  0
LINE
  5
3B
  8
0
 10
10.0
 20
10.0
 30
0.0
 11
10.0
 21
287.0
 31
0.0
  0
LINE
  5
3C
  8
0
 10
410.0
 20
287.0
 30
0.0
 11
10.0
 21
287.0
 31
0.0
  0
LINE
  5
3D
  8
0
 10
7.75
 20
261.0
 30
0.0
 11
10.0
 21
261.0
 31
0.0
  0
LINE
  5
3E
  8
0
 10
7.75
 20
261.0
 30
0.0
 11
5.0
 21
261.0
 31
0.0
  0
LINE
  5
3F
  8
0
 10
5.0
 20
236.0
 30
0.0
 11
10.0
 21
236.0
 31
0.0
  0
LINE
  5
40
  8
0
 10
5.0
 20
211.0
 30
0.0
 11
10.0
 21
211.0
 31
0.0
  0
LINE
  5
41
  8
0
 10
5.0
 20
186.0
 30
0.0
 11
10.0
 21
186.0
 31
0.0
  0
LINE
  5
42
  8
0
 10
5.0
 20
161.0
 30
0.0
 11
10.0
 21
161.0
 31
0.0
  0
LINE
  5
43
  8
0
 10
5.0
 20
136.0
 30
0.0
 11
10.0
 21
136.0
 31
0.0
  0
LINE
  5
44
  8
0
 10
5.0
 20
111.0
 30
0.0
 11
10.0
 21
111.0
 31
0.0
  0
LINE
  5
45
  8
0
 10
5.0
 20
36.0
 30
0.0
 11
10.0
 21
36.0
 31
0.0
  0
LINE
  5
46
  8
0
 10
5.0
 20
61.0
 30
0.0
 11
10.0
 21
61.0
 31
0.0
  0
LINE
  5
47
  8
0
 10
5.0
 20
86.0
 30
0.0
 11
10.0
 21
86.0
 31
0.0
  0
LINE
  5
48
  8
0
 10
57.25
 20
5.0
 30
0.0
 11
47.75
 21
5.0
 31
0.0
  0
LINE
  5
49
  8
0
 10
47.75
 20
5.0
 30
0.0
 11
5.0
 21
5.0
 31
0.0
  0
LINE
  5
4A
  8
0
 10
23.5
 20
10.0
 30
0.0
 11
10.0
 21
10.0
 31
0.0
  0
LINE
  5
4B
  8
0
 10
23.5
 20
10.0
 30
0.0
 11
410.0
 21
10.0
 31
0.0
  0
LINE
  5
4C
  8
0
 10
57.25
 20
5.0
 30
0.0
 11
415.0
 21
5.0
 31
0.0
  0
TEXT
  5
4D
  8
Q
 10
6.0
 20
272.25
 30
0.0
 40
3.0
  1
A
  7
ROMANS
  0
TEXT
  5
4E
  8
Q
 10
5.75
 20
247.25
 30
0.0
 40
3.0
  1
B
  7
ROMANS
  0
TEXT
  5
4F
  8
Q
 10
6.25
 20
223.75
 30
0.0
 40
3.0
  1
C
  7
ROMANS
  0
TEXT
  5
50
  8
Q
 10
6.0
 20
196.5
 30
0.0
 40
3.0
  1
D
  7
ROMANS
  0
TEXT
  5
51
  8
Q
 10
6.5
 20
174.0
 30
0.0
 40
3.0
  1
E
  7
ROMANS
  0
TEXT
  5
52
  8
Q
 10
6.25
 20
147.25
 30
0.0
 40
3.0
  1
F
  7
ROMANS
  0
TEXT
  5
53
  8
Q
 10
6.0
 20
123.75
 30
0.0
 40
3.0
  1
G
  7
ROMANS
  0
TEXT
  5
54
  8
Q
 10
5.75
 20
96.5
 30
0.0
 40
3.0
  1
H
  7
ROMANS
  0
TEXT
  5
55
  8
Q
 10
6.0
 20
73.25
 30
0.0
 40
3.0
  1
J
  7
ROMANS
  0
TEXT
  5
56
  8
Q
 10
6.25
 20
48.25
 30
0.0
 40
3.0
  1
K
  7
ROMANS
  0
TEXT
  5
57
  8
Q
 10
6.25
 20
17.5
 30
0.0
 40
3.0
  1
L
  7
ROMANS
  0
TEXT
  5
58
  8
Q
 10
411.24999999999989
 20
17.5
 30
0.0
 40
3.0
  1
L
  7
ROMANS
  0
TEXT
  5
59
  8
Q
 10
411.24999999999989
 20
48.25
 30
0.0
 40
3.0
  1
K
  7
ROMANS
  0
TEXT
  5
5A
  8
Q
 10
411.5
 20
73.25
 30
0.0
 40
3.0
  1
J
  7
ROMANS
  0
TEXT
  5
5B
  8
Q
 10
411.0
 20
96.5
 30
0.0
 40
3.0
  1
H
  7
ROMANS
  0
TEXT
  5
5C
  8
Q
 10
411.24999999999989
 20
123.75
 30
0.0
 40
3.0
  1
G
  7
ROMANS
  0
TEXT
  5
5D
  8
Q
 10
411.5
 20
147.25
 30
0.0
 40
3.0
  1
F
  7
ROMANS
  0
TEXT
  5
5E
  8
Q
 10
411.5
 20
174.0
 30
0.0
 40
3.0
  1
E
  7
ROMANS
  0
TEXT
  5
5F
  8
Q
 10
411.24999999999989
 20
196.5
 30
0.0
 40
3.0
  1
D
  7
ROMANS
  0
TEXT
  5
60
  8
Q
 10
411.24999999999989
 20
223.75
 30
0.0
 40
3.0
  1
C
  7
ROMANS
  0
TEXT
  5
61
  8
Q
 10
411.24999999999989
 20
247.25
 30
0.0
 40
3.0
  1
B
  7
ROMANS
  0
TEXT
  5
62
  8
Q
 10
411.24999999999989
 20
272.25
 30
0.0
 40
3.0
  1
A
  7
ROMANS
  0
LINE
  5
63
  8
0
 10
410.25
 20
86.0
 30
0.0
 11
415.0
 21
86.0
 31
0.0
  0
LINE
  5
64
  8
0
 10
410.0
 20
61.0
 30
0.0
 11
415.0
 21
61.0
 31
0.0
  0
LINE
  5
65
  8
0
 10
410.0
 20
36.0
 30
0.0
 11
415.0
 21
36.0
 31
0.0
  0
LINE
  5
66
  8
0
 10
410.0
 20
86.0
 30
0.0
 11
415.0
 21
86.0
 31
0.0
  0
LINE
  5
67
  8
0
 10
410.0
 20
111.0
 30
0.0
 11
415.0
 21
111.0
 31
0.0
  0
LINE
  5
68
  8
0
 10
410.0
 20
136.0
 30
0.0
 11
415.0
 21
136.0
 31
0.0
  0
LINE
  5
69
  8
0
 10
410.0
 20
161.0
 30
0.0
 11
415.0
 21
161.0
 31
0.0
  0
LINE
  5
6A
  8
0
 10
410.0
 20
186.0
 30
0.0
 11
415.0
 21
186.0
 31
0.0
  0
LINE
  5
6B
  8
0
 10
410.0
 20
211.0
 30
0.0
 11
415.0
 21
211.0
 31
0.0
  0
LINE
  5
6C
  8
0
 10
410.0
 20
236.0
 30
0.0
 11
415.0
 21
236.0
 31
0.0
  0
LINE
  5
6D
  8
0
 10
412.75
 20
261.0
 30
0.0
 11
410.0
 21
261.0
 31
0.0
  0
LINE
  5
6E
  8
0
 10
412.75
 20
261.0
 30
0.0
 11
415.0
 21
261.0
 31
0.0
  0
LINE
  5
6F
  8
0
 10
415.0
 20
5.0
 30
0.0
 11
415.0
 21
286.0
 31
0.0
  0
TEXT
  5
70
  8
Q
 10
32.0
 20
6.0
 30
0.0
 40
3.0
  1
1
  7
ROMANS
  0
LINE
  5
71
  8
0
 10
58.75
 20
10.0
 30
0.0
 11
58.75
 21
5.0
 31
0.0
  0
LINE
  5
72
  8
0
 10
358.75
 20
10.0
 30
0.0
 11
358.75
 21
5.0
 31
0.0
  0
LINE
  5
73
  8
0
 10
308.75
 20
10.0
 30
0.0
 11
308.75
 21
5.0
 31
0.0
  0
LINE
  5
74
  8
0
 10
258.75
 20
10.0
 30
0.0
 11
258.75
 21
5.0
 31
0.0
  0
LINE
  5
75
  8
0
 10
208.75
 20
10.0
 30
0.0
 11
208.75
 21
5.0
 31
0.0
  0
LINE
  5
76
  8
0
 10
158.75
 20
10.25
 30
0.0
 11
158.75
 21
5.25
 31
0.0
  0
LINE
  5
77
  8
0
 10
108.75
 20
10.25
 30
0.0
 11
108.75
 21
5.25
 31
0.0
  0
TEXT
  5
78
  8
Q
 10
384.0
 20
6.25
 30
0.0
 40
3.0
  1
8
  7
ROMANS
  0
TEXT
  5
79
  8
Q
 10
333.5
 20
6.25
 30
0.0
 40
3.0
  1
7
  7
ROMANS
  0
TEXT
  5
7A
  8
Q
 10
284.5
 20
6.25
 30
0.0
 40
3.0
  1
6
  7
ROMANS
  0
TEXT
  5
7B
  8
Q
 10
232.5
 20
6.25
 30
0.0
 40
3.0
  1
5
  7
ROMANS
  0
TEXT
  5
7C
  8
Q
 10
183.0
 20
6.5
 30
0.0
 40
3.0
  1
4
  7
ROMANS
  0
TEXT
  5
7D
  8
Q
 10
133.5
 20
6.25
 30
0.0
 40
3.0
  1
3
  7
ROMANS
  0
TEXT
  5
7E
  8
Q
 10
83.499999999999986
 20
6.0
 30
0.0
 40
3.0
  1
2
  7
ROMANS
  0
LINE
  5
7F
  8
0
 10
0.0
 20
0.0
 30
0.0
 11
0.0
 21
24.5
 31
0.0
  0
LINE
  5
80
  8
0
 10
5.0
 20
86.0
 30
0.0
 11
9.75
 21
86.0
 31
0.0
  0
LINE
  5
81
  8
0
 10
12.5
 20
0.0
 30
0.0
 11
0.0
 21
0.0
 31
0.0
  0
LINE
  5
82
  8
0
 10
0.0
 20
24.5
 30
0.0
 11
0.0
 21
297.0
 31
0.0
  0
LINE
  5
83
  8
0
 10
12.5
 20
0.0
 30
0.0
 11
420.0
 21
0.0
 31
0.0
  0
LINE
  5
84
  8
0
 10
420.0
 20
13.0
 30
0.0
 11
420.0
 21
0.0
 31
0.0
  0
LINE
  5
85
  8
0
 10
420.0
 20
13.0
 30
0.0
 11
420.0
 21
297.0
 31
0.0
  0
LINE
  5
86
  8
0
 10
0.0
 20
297.0
 30
0.0
 11
420.0
 21
297.0
 31
0.0
  0
ENDBLK
  5
88
  8
0
  0
BLOCK
  8
0
  2
TABGALM
 70
     0
 10
0.0
 20
0.0
 30
0.0
  3
TABGALM
  1

  0
INSERT
  5
C6
  8
Q
  2
*U59
 10
0.0
 20
0.0
 30
0.0
  0
LINE
  5
C7
  8
0
 62
     2
 10
-235.0
 20
0.0
 30
0.0
 11
-235.0
 21
80.0
 31
0.0
  0
LINE
  5
C8
  8
TAB
 10
-50.0
 20
0.0
 30
0.0
 11
-50.0
 21
20.0
 31
0.0
  0
LINE
  5
CA
  8
TAB
 10
-60.366632292173101
 20
18.503186171289538
 30
0.0
 11
-60.366632292173101
 21
1.4968138287105139
 31
0.0
  0
CIRCLE
  5
CB
  8
TAB
 10
-60.366632292173101
 20
10.0
 30
0.0
 40
3.0
  0
CIRCLE
  5
CC
  8
TAB
 10
-60.366632292173101
 20
10.0
 30
0.0
 40
6.0
  0
LINE
  5
CD
  8
Q
 10
0.0
 20
79.999999999999943
 30
0.0
 11
0.0
 21
0.0
 31
0.0
  0
LINE
  5
CE
  8
TAB
 10
-70.329418859454563
 20
4.0
 30
0.0
 11
-70.329418859454563
 21
16.0
 31
0.0
  0
LINE
  5
CF
  8
TAB
 10
-85.329418859454563
 20
7.0
 30
0.0
 11
-85.329418859454563
 21
13.0
 31
0.0
  0
TEXT
  5
D0
  8
TAB
 10
-195.87963023352361
 20
11.031733063348041
 30
0.0
 40
1.844364967431996
  1
munque utilizzato per la costruzione dell' oggetto rap-
  7
MONOTXT
  0
LINE
  5
D2
  8
TAB
 10
-90.0
 20
0.0
 30
0.0
 11
-90.0
 21
70.0
 31
0.0
  0
TEXT
  5
D3
  8
Q
 10
-239.47242694384909
 20
5.1945118636955376
 30
0.0
 40
3.0
  1
N%%d FILE :
 50
90.0
  7
ROMANS
  0
TEXT
  5
D4
  8
TAB
 10
-247.99271241995419
 20
5.1945118636955376
 30
0.0
 40
3.0
  1
o modifiche manuali
 50
90.0
  7
ROMANS
  0
TEXT
  5
D5
  8
TAB
 10
-252.84985527709711
 20
5.1945118636955376
 30
0.0
 40
3.0
  1
non sono ammesse variazioni
 50
90.0
  7
ROMANS
  0
TEXT
  5
D6
  8
TAB
 10
-257.70699813424
 20
5.1945118636955376
 30
0.0
 40
3.0
  1
DISEGNO ESEGUITO CON C.A.D.
 50
90.0
  7
ROMANS
  0
LINE
  5
D7
  8
Q
 10
-265.0
 20
0.0
 30
0.0
 11
-265.0
 21
80.0
 31
0.0
  0
LINE
  5
D8
  8
Q
 10
-200.0
 20
80.0
 30
0.0
 11
-200.0
 21
0.0
 31
0.0
  0
LINE
  5
D9
  8
0
 62
     2
 10
0.0
 20
0.0
 30
0.0
 11
-235.0
 21
0.0
 31
0.0
  0
LINE
  5
DA
  8
0
 62
     2
 10
-235.0
 20
0.0
 30
0.0
 11
-265.0
 21
0.0
 31
0.0
  0
LINE
  5
DB
  8
TAB
 10
-51.932546216746232
 20
10.0
 30
0.0
 11
-88.434744137662392
 21
10.0
 31
0.0
  0
LINE
  5
DC
  8
TAB
 10
-85.329418859454563
 20
7.0
 30
0.0
 11
-70.329418859454563
 21
4.0
 31
0.0
  0
TEXT
  5
DD
  8
TAB
 10
-195.87963023352361
 20
1.809908226188099
 30
0.0
 40
1.844364967431996
  1
gore di legge.
  7
MONOTXT
  0
TEXT
  5
DE
  8
TAB
 10
-195.87963023352361
 20
4.8838498385747471
 30
0.0
 40
1.844364967431996
  1
La Societa' proprietaria tutela i propri diritti a ri-
  7
MONOTXT
  0
TEXT
  5
DF
  8
TAB
 10
-195.87963023352361
 20
7.9577914509613938
 30
0.0
 40
1.844364967431996
  1
presentato ne' venire comunicato a terzi o riprodotto.
  7
MONOTXT
  0
TEXT
  5
E0
  8
TAB
 10
-47.707950354223833
 20
2.8218625598435092
 30
0.0
 40
3.0
  1
N%%D DISEGNO
  7
ROMANS
  0
LINE
  5
E1
  8
TAB
 10
-49.0
 20
8.0
 30
0.0
 11
-1.0
 21
8.0
 31
0.0
  0
INSERT
  5
E2
  8
Q
  2
*U60
 10
0.0
 20
0.0
 30
0.0
  0
LINE
  5
E3
  8
0
 62
     2
 10
-235.0
 20
66.112090073562285
 30
0.0
 11
-200.0
 21
66.112090073562285
 31
0.0
  0
INSERT
  5
E4
  8
Q
  2
*U61
 10
0.0
 20
0.0
 30
0.0
  0
INSERT
  5
E5
  8
Q
  2
*U62
 10
0.0
 20
0.0
 30
0.0
  0
INSERT
  5
E6
  8
Q
  2
*U63
 10
0.0
 20
0.0
 30
0.0
  0
INSERT
  5
E7
  8
Q
  2
*U64
 10
0.0
 20
0.0
 30
0.0
  0
LINE
  5
E8
  8
0
 62
     2
 10
-235.0
 20
26.648434600545439
 30
0.0
 11
-200.0
 21
26.648434600545439
 31
0.0
  0
LINE
  5
E9
  8
0
 62
     2
 10
-235.0
 20
32.286099668119277
 30
0.0
 11
-200.0
 21
32.286099668119277
 31
0.0
  0
LINE
  5
EA
  8
0
 62
     2
 10
-235.0
 20
37.923764735693112
 30
0.0
 11
-200.0
 21
37.923764735693112
 31
0.0
  0
LINE
  5
EB
  8
0
 62
     2
 10
-235.0
 20
43.56142980326694
 30
0.0
 11
-200.0
 21
43.56142980326694
 31
0.0
  0
LINE
  5
EC
  8
0
 62
     2
 10
-235.0
 20
49.199094870840781
 30
0.0
 11
-200.0
 21
49.199094870840781
 31
0.0
  0
LINE
  5
ED
  8
0
 62
     2
 10
-235.0
 20
54.836759938414623
 30
0.0
 11
-200.0
 21
54.836759938414623
 31
0.0
  0
LINE
  5
EE
  8
0
 62
     2
 10
-235.0
 20
60.474425005988451
 30
0.0
 11
-200.0
 21
60.474425005988451
 31
0.0
  0
LINE
  5
EF
  8
0
 62
     2
 10
-235.0
 20
80.0
 30
0.0
 11
-200.0
 21
80.0
 31
0.0
  0
LINE
  5
F0
  8
0
 62
     2
 10
-235.0
 20
80.0
 30
0.0
 11
-265.0
 21
80.0
 31
0.0
  0
LINE
  5
F1
  8
TAB
 10
-89.0
 20
44.00000000000005
 30
0.0
 11
-61.0
 21
44.000000000000107
 31
0.0
  0
LINE
  5
F2
  8
TAB
 10
-89.0
 20
54.0
 30
0.0
 11
-61.0
 21
54.00000000000005
 31
0.0
  0
LINE
  5
F3
  8
TAB
 10
-89.0
 20
64.0
 30
0.0
 11
-61.0
 21
64.000000000000057
 31
0.0
  0
TEXT
  5
F4
  8
TAB
 10
-88.392701946481338
 20
36.107807892704614
 30
0.0
 40
2.0
  1
DIMENSIONI IN mm
  7
ROMANS
  0
LINE
  5
F5
  8
TAB
 10
-90.0
 20
60.0
 30
0.0
 11
-36.906152719282318
 21
60.0
 31
0.0
  0
LINE
  5
F6
  8
TAB
 10
-90.0
 20
50.0
 30
0.0
 11
-36.906152719282318
 21
50.0
 31
0.0
  0
LINE
  5
F7
  8
TAB
 10
-90.0
 20
40.0
 30
0.0
 11
0.0
 21
40.0
 31
0.0
  0
LINE
  5
F8
  8
TAB
 10
-199.0
 20
74.0
 30
0.0
 11
-31.194880454738271
 21
74.0
 31
0.0
  0
LINE
  5
F9
  8
TAB
 10
-200.0
 20
20.0
 30
0.0
 11
0.0
 21
20.0
 31
0.0
  0
LINE
  5
FA
  8
TAB
 10
-200.0
 20
70.0
 30
0.0
 11
0.0
 21
70.0
 31
0.0
  0
LINE
  5
FB
  8
TAB
 10
-200.0
 20
70.0
 30
0.0
 11
-30.0
 21
70.0
 31
0.0
  0
LINE
  5
FC
  8
TAB
 10
-200.0
 20
80.0
 30
0.0
 11
-30.0
 21
80.0
 31
0.0
  0
INSERT
  5
FD
  8
Q
  2
*U65
 10
0.0
 20
0.0
 30
0.0
  0
INSERT
  5
FE
  8
Q
  2
*U66
 10
0.0
 20
0.0
 30
0.0
  0
INSERT
  5
FF
  8
Q
  2
*U67
 10
0.0
 20
0.0
 30
0.0
  0
INSERT
  5
100
  8
Q
  2
*U68
 10
0.0
 20
0.0
 30
0.0
  0
INSERT
  5
101
  8
Q
  2
*U69
 10
0.0
 20
0.0
 30
0.0
  0
INSERT
  5
102
  8
Q
  2
*U70
 10
0.0
 20
0.0
 30
0.0
  0
INSERT
  5
103
  8
Q
  2
*U71
 10
0.0
 20
0.0
 30
0.0
  0
INSERT
  5
104
  8
Q
  2
*U72
 10
0.0
 20
0.0
 30
0.0
  0
INSERT
  5
105
  8
Q
  2
*U73
 10
0.0
 20
0.0
 30
0.0
  0
LINE
  5
106
  8
0
 62
     2
 10
-212.527062704321
 20
26.648434600545439
 30
0.0
 11
-212.527062704321
 21
80.0
 31
0.0
  0
LINE
  5
107
  8
TAB
 10
-67.2047242611211
 20
70.0
 30
0.0
 11
-67.2047242611211
 21
80.0
 31
0.0
  0
TEXT
  5
108
  8
TAB
 10
-88.833841603020119
 20
50.966845416114722
 30
0.0
 40
2.0
  1
DISEGNATO
  7
ROMANS
  0
TEXT
  5
109
  8
TAB
 10
-88.833841603020119
 20
61.0
 30
0.0
 40
2.0
  1
SCALA
  7
ROMANS
  0
LINE
  5
10A
  8
TAB
 10
-103.0132155663582
 20
70.0
 30
0.0
 11
-103.0132155663582
 21
80.0
 31
0.0
  0
LINE
  5
10B
  8
TAB
 10
-130.04178723981229
 20
70.0
 30
0.0
 11
-130.04178723981229
 21
80.0
 31
0.0
  0
TEXT
  5
10C
  8
TAB
 10
-128.70813459684359
 20
71.0
 30
0.0
 40
2.0
  1
SPESSORE mm.
  7
ROMANS
  0
TEXT
  5
10D
  8
TAB
 10
-158.64085387969499
 20
72.181295870163012
 30
0.0
 40
1.0
  1
2
  7
ROMANS
  0
LINE
  5
10E
  8
TAB
 10
-156.4921252921076
 20
70.0
 30
0.0
 11
-156.4921252921076
 21
80.0
 31
0.0
  0
LINE
  5
10F
  8
TAB
 10
-175.9822844712094
 20
70.0
 30
0.0
 11
-175.9822844712094
 21
80.0
 31
0.0
  0
TEXT
  5
110
  8
TAB
 10
-196.40937262354601
 20
71.0
 30
0.0
 40
2.0
  1
PESO gr/ml
  7
ROMANS
  0
TEXT
  5
111
  8
TAB
 10
-198.0
 20
63.471304138326843
 30
0.0
 40
4.0
  1
DENOMINAZIONE:
  7
ROMANS
  0
TEXT
  5
112
  8
TAB
 10
-173.65881289843739
 20
71.0
 30
0.0
 40
2.0
  1
AREA mm
  7
ROMANS
  0
LINE
  5
113
  8
TAB
 10
-198.0
 20
46.00000000000005
 30
0.0
 11
-92.0
 21
46.0
 31
0.0
  0
LINE
  5
114
  8
TAB
 10
-198.0
 20
54.00000000000005
 30
0.0
 11
-92.0
 21
54.0
 31
0.0
  0
LINE
  5
115
  8
TAB
 10
-198.0
 20
62.000000000000057
 30
0.0
 11
-92.0
 21
62.0
 31
0.0
  0
TEXT
  5
116
  8
TAB
 10
-155.19435828144901
 20
71.0
 30
0.0
 40
2.0
  1
PERIMETRO mm.
  7
ROMANS
  0
TEXT
  5
117
  8
TAB
 10
-88.833841603020119
 20
40.999027941323561
 30
0.0
 40
2.0
  1
FOGLIO
  7
ROMANS
  0
LINE
  5
118
  8
TAB
 10
-85.329418859454563
 20
13.0
 30
0.0
 11
-70.329418859454563
 21
16.0
 31
0.0
  0
TEXT
  5
119
  8
TAB
 10
-198.0
 20
39.963051544155981
 30
0.0
 40
4.0
  1
MATERIALE:
  7
ROMANS
  0
TEXT
  5
11A
  8
TAB
 10
-195.87963023352361
 20
14.10567467573469
 30
0.0
 40
1.844364967431996
  1
della stessa il presente disegno non potra' essere co-
  7
MONOTXT
  0
TEXT
  5
11B
  8
TAB
 10
-195.87963023352361
 20
17.179616288121391
 30
0.0
 40
1.844364967431996
  1
Proprieta'dott.GALLINA s.r.l.Senza autorizzazione scritta
  7
MONOTXT
  0
LINE
  5
11C
  8
TAB
 10
-198.0
 20
22.00000000000006
 30
0.0
 11
-92.0
 21
22.0
 31
0.0
  0
LINE
  5
11D
  8
TAB
 10
-198.0
 20
30.00000000000006
 30
0.0
 11
-92.0
 21
30.0
 31
0.0
  0
LINE
  5
11E
  8
TAB
 10
-198.0
 20
38.000000000000057
 30
0.0
 11
-92.0
 21
38.0
 31
0.0
  0
TEXT
  5
11F
  8
TAB
 10
-101.40935854017511
 20
71.0
 30
0.0
 40
2.0
  1
SPIGOLI NON QUOTATI
  7
ROMANS
  0
LINE
  5
120
  8
TAB
 10
-200.0
 20
70.0
 30
0.0
 11
-200.0
 21
79.929453576897231
 31
0.0
  0
LINE
  5
121
  8
TAB
 10
-5.0
 20
75.0
 30
0.0
 11
-5.0
 21
80.0
 31
0.0
  0
LINE
  5
122
  8
TAB
 10
-10.0
 20
75.0
 30
0.0
 11
-10.0
 21
80.0
 31
0.0
  0
LINE
  5
123
  8
TAB
 10
-15.0
 20
75.0
 30
0.0
 11
-15.0
 21
80.0
 31
0.0
  0
LINE
  5
124
  8
TAB
 10
-20.0
 20
75.0
 30
0.0
 11
-20.0
 21
80.0
 31
0.0
  0
LINE
  5
125
  8
TAB
 10
-25.0
 20
75.0
 30
0.0
 11
-25.0
 21
80.0
 31
0.0
  0
LINE
  5
126
  8
TAB
 10
-30.0
 20
70.0
 30
0.0
 11
-30.0
 21
80.0
 31
0.0
  0
LINE
  5
127
  8
TAB
 10
-30.0
 20
70.0
 30
0.0
 11
-30.0
 21
80.0
 31
0.0
  0
TEXT
  5
128
  8
TAB
 10
-26.79017849538377
 20
71.0
 30
0.0
 40
3.0
  1
MODIFICHE
  7
ROMANS
  0
LINE
  5
129
  8
TAB
 10
-26.9851882030257
 20
60.75048880096557
 30
0.0
 11
-26.9851882030257
 21
59.652367921305483
 31
0.0
  0
LINE
  5
12A
  8
TAB
 10
-24.22951233271715
 20
59.535488800965588
 30
0.0
 11
-26.9851882030257
 21
59.535488800965588
 31
0.0
  0
LINE
  5
12B
  8
TAB
 10
-22.935188203025518
 20
60.75048880096557
 30
0.0
 11
-26.9851882030257
 21
60.75048880096557
 31
0.0
  0
LINE
  5
12C
  8
TAB
 10
-24.528688301619241
 20
61.616643268628309
 30
0.0
 11
-23.475902629587829
 21
62.223163943268098
 31
0.0
  0
ARC
  5
12D
  8
TAB
 10
-26.9851882030257
 20
60.201428361135527
 30
0.0
 40
2.8349999999999991
 50
29.946687855966552
 51
346.4143121411376
  0
LINE
  5
12E
  8
TAB
 10
-26.9851882030257
 20
48.497945693080958
 30
0.0
 11
-19.863757477059831
 21
55.619376419046709
 31
0.0
  0
LINE
  5
12F
  8
TAB
 10
-34.106618928991338
 20
55.61937641904666
 30
0.0
 11
-26.9851882030257
 21
48.497945693080958
 31
0.0
  0
ARC
  5
130
  8
TAB
 10
-26.9851882030257
 20
60.201428361135527
 30
0.0
 40
4.0499999999999989
 50
29.946687855966481
 51
7.7916092072840524
  0
POLYLINE
  5
131
  8
TAB
 66
     1
 10
0.0
 20
0.0
 30
0.0
 70
     1
  0
VERTEX
  5
68D
  8
TAB
 10
-26.9851882030257
 20
53.079997635169832
 30
0.0
  0
VERTEX
  5
68E
  8
TAB
 10
-19.863757477059831
 20
60.201428361135527
 30
0.0
  0
VERTEX
  5
68F
  8
TAB
 10
-26.9851882030257
 20
67.322859087101165
 30
0.0
  0
VERTEX
  5
690
  8
TAB
 10
-34.106618928991338
 20
60.201428361135527
 30
0.0
  0
SEQEND
  5
691
  8
TAB
  0
LINE
  5
132
  8
TAB
 10
-34.106618928991338
 20
60.201428361135527
 30
0.0
 11
-26.9851882030257
 21
53.079997635169832
 31
0.0
  0
LINE
  5
133
  8
TAB
 10
-26.9851882030257
 20
53.079997635169832
 30
0.0
 11
-19.863757477059831
 21
60.201428361135527
 31
0.0
  0
LINE
  5
134
  8
TAB
 10
-34.106618928991338
 20
59.055915375613267
 30
0.0
 11
-26.9851882030257
 21
51.934484649647629
 31
0.0
  0
LINE
  5
135
  8
TAB
 10
-26.9851882030257
 20
51.934484649647629
 30
0.0
 11
-19.863757477059831
 21
59.055915375613267
 31
0.0
  0
LINE
  5
136
  8
TAB
 10
-34.106618928991338
 20
59.055915375613267
 30
0.0
 11
-34.106618928991338
 21
55.61937641904666
 31
0.0
  0
LINE
  5
137
  8
TAB
 10
-19.863757477059831
 20
59.055915375613267
 30
0.0
 11
-19.863757477059831
 21
55.619376419046709
 31
0.0
  0
LINE
  5
138
  8
TAB
 10
-59.0
 20
64.000000000000057
 30
0.0
 11
-37.906152719282318
 21
64.0
 31
0.0
  0
LINE
  5
139
  8
TAB
 10
-59.0
 20
54.00000000000005
 30
0.0
 11
-37.906152719282318
 21
54.0
 31
0.0
  0
TEXT
  5
13A
  8
TAB
 10
-58.516147262714178
 20
50.966845416114722
 30
0.0
 40
2.0
  1
VISTO
  7
ROMANS
  0
TEXT
  5
13B
  8
TAB
 10
-58.516147262714178
 20
61.0
 30
0.0
 40
2.0
  1
DATA
  7
ROMANS
  0
TEXT
  5
13C
  8
TAB
 10
-59.164838395965027
 20
36.121030230041242
 30
0.0
 40
2.0
  1
.
  7
ROMANS
  0
LINE
  5
13D
  8
TAB
 10
-59.0
 20
44.000000000000107
 30
0.0
 11
-37.906152719282318
 21
44.00000000000005
 31
0.0
  0
TEXT
  5
13E
  8
TAB
 10
-58.516147262714178
 20
40.999027941323561
 30
0.0
 40
2.0
  1
di FOGLI
  7
ROMANS
  0
TEXT
  5
13F
  8
TAB
 10
-36.345980678390113
 20
41.411034241908453
 30
0.0
 40
1.4070103284643689
  1
INDUSTRIA MATERIE PLASTICHE
 72
     3
 11
-0.7017190239594129
 21
41.411034241908453
 31
0.0
  0
LINE
  5
140
  8
TAB
 10
-61.245447942051889
 20
40.000000000000057
 30
0.0
 11
-61.245447942051889
 21
70.0
 31
0.0
  0
LINE
  5
141
  8
TAB
 10
-36.727545321369689
 20
40.0
 30
0.0
 11
-36.727545321369689
 21
70.0
 31
0.0
  0
TEXT
  5
142
  8
TAB
 10
-36.027758080459989
 20
44.905559269780213
 30
0.0
 40
2.0
  1
dott.      
  0
TEXT
  5
143
  8
TAB
 10
-9.1245543751545028
 20
45.512555949430627
 30
0.0
 40
2.0
  1
s.r.l.  
  0
TEXT
  5
144
  8
TAB
 10
-26.129583193182501
 20
45.153624401513227
 30
0.0
 40
3.0
  1
gallina
  0
ENDBLK
  5
146
  8
0
  0
BLOCK
  8
0
  2
*D29
 70
     1
 10
0.0
 20
0.0
 30
0.0
  3
*D29
  1

  0
LINE
  5
628
  8
Q
 62
     0
 10
4142.7927252753107
 20
-5122.3757956782283
 30
0.0
 11
4142.7927252753107
 21
-5159.8400269430713
 31
0.0
  0
LINE
  5
629
  8
Q
 62
     0
 10
4640.2927252753107
 20
-5122.3757956782283
 30
0.0
 11
4640.2927252753107
 21
-5159.8400269430713
 31
0.0
  0
LINE
  5
62A
  8
Q
 62
     0
 10
4145.7927252753107
 20
-5158.8400269430713
 30
0.0
 11
4637.2927252753107
 21
-5158.8400269430713
 31
0.0
  0
SOLID
  5
62B
  8
Q
 62
     0
 10
4145.7927252753107
 20
-5158.3400269430713
 30
0.0
 11
4145.7927252753107
 21
-5159.3400269430722
 31
0.0
 12
4142.7927252753107
 22
-5158.8400269430713
 32
0.0
 13
4142.7927252753107
 23
-5158.8400269430713
 33
0.0
  0
SOLID
  5
62C
  8
Q
 62
     0
 10
4637.2927252753107
 20
-5158.3400269430713
 30
0.0
 11
4637.2927252753107
 21
-5159.3400269430722
 31
0.0
 12
4640.2927252753107
 22
-5158.8400269430713
 32
0.0
 13
4640.2927252753107
 23
-5158.8400269430713
 33
0.0
  0
TEXT
  8
Q
  40
3
  5
807
  62
5
  72
0
  71
0
 10
4391.54
 20
-5160.24
 30
0.000000
  1
497.5
  7
ROMANS
  0
POINT
  5
62E
  8
DEFPOINTS
 62
     0
 10
4142.7927252753107
 20
-5121.3757956782283
 30
0.0
  0
POINT
  5
62F
  8
DEFPOINTS
 62
     0
 10
4640.2927252753107
 20
-5121.3757956782283
 30
0.0
  0
POINT
  5
630
  8
DEFPOINTS
 62
     0
 10
4640.2927252753107
 20
-5158.8400269430713
 30
0.0
  0
ENDBLK
  5
3B5
  8
0
  0
BLOCK
  8
0
  2
*D30
 70
     1
 10
0.0
 20
0.0
 30
0.0
  3
*D30
  1

  0
LINE
  5
6CA
  8
Q
 62
     0
 10
4160.0735327955781
 20
-5112.8757956782283
 30
0.0
 11
4126.1316835410589
 21
-5112.8757956782283
 31
0.0
  0
LINE
  5
6CB
  8
Q
 62
     0
 10
4165.6927252753121
 20
-5122.3757956782283
 30
0.0
 11
4126.1316835410589
 21
-5122.3757956782283
 31
0.0
  0
LINE
  5
6CC
  8
Q
 62
     0
 10
4127.131683541058
 20
-5109.8757956782283
 30
0.0
 11
4127.131683541058
 21
-5106.8757956782283
 31
0.0
  0
LINE
  5
6CD
  8
Q
 62
     0
 10
4127.131683541058
 20
-5125.3757956782292
 30
0.0
 11
4127.131683541058
 21
-5136.6615099639439
 31
0.0
  0
SOLID
  5
6CE
  8
Q
 62
     0
 10
4126.6316835410589
 20
-5109.8757956782283
 30
0.0
 11
4127.6316835410589
 21
-5109.8757956782283
 31
0.0
 12
4127.131683541058
 22
-5112.8757956782283
 32
0.0
 13
4127.131683541058
 23
-5112.8757956782283
 33
0.0
  0
SOLID
  5
6CF
  8
Q
 62
     0
 10
4126.6316835410589
 20
-5125.3757956782292
 30
0.0
 11
4127.6316835410589
 21
-5125.3757956782292
 31
0.0
 12
4127.131683541058
 22
-5122.3757956782283
 32
0.0
 13
4127.131683541058
 23
-5122.3757956782283
 33
0.0
  0
TEXT
  8
Q
  40
3
  5
808
  62
5
  72
0
  71
0
 10
4124.63
 20
-5136.42
 30
0.000000
  1
9.5
  7
ROMANS
  0
POINT
  5
6D1
  8
DEFPOINTS
 62
     0
 10
4161.0735327955781
 20
-5112.8757956782283
 30
0.0
  0
POINT
  5
6D2
  8
DEFPOINTS
 62
     0
 10
4166.6927252753121
 20
-5122.3757956782283
 30
0.0
  0
POINT
  5
6D3
  8
DEFPOINTS
 62
     0
 10
4127.131683541058
 20
-5122.3757956782283
 30
0.0
  0
ENDBLK
  5
3C2
  8
0
  0
BLOCK
  8
0
  2
*D31
 70
     1
 10
0.0
 20
0.0
 30
0.0
  3
*D31
  1

  0
LINE
  5
71C
  8
Q
 62
     0
 10
4141.5427252753116
 20
-5082.3757956782283
 30
0.0
 11
4117.6505190418793
 21
-5082.3757956782283
 31
0.0
  0
LINE
  5
71D
  8
Q
 62
     0
 10
4142.7927252753107
 20
-5122.3757956782283
 30
0.0
 11
4117.6505190418793
 21
-5122.3757956782283
 31
0.0
  0
LINE
  5
71E
  8
Q
 62
     0
 10
4118.6505190418811
 20
-5085.3757956782283
 30
0.0
 11
4118.6505190418811
 21
-5119.3757956782283
 31
0.0
  0
SOLID
  5
71F
  8
Q
 62
     0
 10
4118.1505190418802
 20
-5085.3757956782283
 30
0.0
 11
4119.1505190418802
 21
-5085.3757956782283
 31
0.0
 12
4118.6505190418811
 22
-5082.3757956782283
 32
0.0
 13
4118.6505190418811
 23
-5082.3757956782283
 33
0.0
  0
SOLID
  5
720
  8
Q
 62
     0
 10
4118.1505190418802
 20
-5119.3757956782283
 30
0.0
 11
4119.1505190418802
 21
-5119.3757956782283
 31
0.0
 12
4118.6505190418811
 22
-5122.3757956782283
 32
0.0
 13
4118.6505190418811
 23
-5122.3757956782283
 33
0.0
  0
TEXT
  8
Q
  40
3
  5
809
  62
5
  72
0
  71
0
 10
4116.15
 20
-5106.28
 30
0.000000
  1
40
  7
ROMANS
  0
POINT
  5
722
  8
DEFPOINTS
 62
     0
 10
4142.5427252753107
 20
-5082.3757956782283
 30
0.0
  0
POINT
  5
723
  8
DEFPOINTS
 62
     0
 10
4143.7927252753116
 20
-5122.3757956782283
 30
0.0
  0
POINT
  5
724
  8
DEFPOINTS
 62
     0
 10
4118.6505190418811
 20
-5122.3757956782283
 30
0.0
  0
ENDBLK
  5
3CE
  8
0
  0
BLOCK
  8
0
  2
*D32
 70
     1
 10
0.0
 20
0.0
 30
0.0
  3
*D32
  1

  0
LINE
  5
6E5
  8
Q
 62
     0
 10
4141.5427252753116
 20
-5092.575795678229
 30
0.0
 11
4124.2834596776529
 21
-5092.575795678229
 31
0.0
  0
LINE
  5
6E6
  8
Q
 62
     0
 10
4141.5427252753116
 20
-5082.3757956782283
 30
0.0
 11
4124.2834596776529
 21
-5082.3757956782283
 31
0.0
  0
LINE
  5
6E7
  8
Q
 62
     0
 10
4125.283459677652
 20
-5095.575795678229
 30
0.0
 11
4125.283459677652
 21
-5098.5757956782281
 31
0.0
  0
LINE
  5
6E8
  8
Q
 62
     0
 10
4125.283459677652
 20
-5079.3757956782283
 30
0.0
 11
4125.283459677652
 21
-5065.661509963943
 31
0.0
  0
SOLID
  5
6E9
  8
Q
 62
     0
 10
4124.7834596776529
 20
-5095.575795678229
 30
0.0
 11
4125.7834596776529
 21
-5095.575795678229
 31
0.0
 12
4125.283459677652
 22
-5092.575795678229
 32
0.0
 13
4125.283459677652
 23
-5092.575795678229
 33
0.0
  0
SOLID
  5
6EA
  8
Q
 62
     0
 10
4124.7834596776529
 20
-5079.3757956782283
 30
0.0
 11
4125.7834596776529
 21
-5079.3757956782283
 31
0.0
 12
4125.283459677652
 22
-5082.3757956782283
 32
0.0
 13
4125.283459677652
 23
-5082.3757956782283
 33
0.0
  0
TEXT
  8
Q
  40
3
  5
80A
  62
5
  72
0
  71
0
 10
4122.78
 20
-5074.92
 30
0.000000
  1
10.2
  7
ROMANS
  0
POINT
  5
6EC
  8
DEFPOINTS
 62
     0
 10
4142.5427252753107
 20
-5092.575795678229
 30
0.0
  0
POINT
  5
6ED
  8
DEFPOINTS
 62
     0
 10
4142.5427252753107
 20
-5082.3757956782283
 30
0.0
  0
POINT
  5
6EE
  8
DEFPOINTS
 62
     0
 10
4125.283459677652
 20
-5082.3757956782283
 30
0.0
  0
ENDBLK
  5
3DB
  8
0
  0
BLOCK
  8
0
  2
*D33
 70
     1
 10
0.0
 20
0.0
 30
0.0
  3
*D33
  1

  0
LINE
  5
635
  8
Q
 62
     0
 10
4141.5427252753116
 20
-5081.3757956782283
 30
0.0
 11
4141.5427252753116
 21
-5046.7606332826372
 31
0.0
  0
LINE
  5
636
  8
Q
 62
     0
 10
4665.7927252753116
 20
-5094.4198268471009
 30
0.0
 11
4665.7927252753116
 21
-5046.7606332826372
 31
0.0
  0
LINE
  5
637
  8
Q
 62
     0
 10
4144.5427252753107
 20
-5047.7606332826381
 30
0.0
 11
4662.7927252753116
 21
-5047.7606332826381
 31
0.0
  0
SOLID
  5
638
  8
Q
 62
     0
 10
4144.5427252753107
 20
-5047.2606332826372
 30
0.0
 11
4144.5427252753107
 21
-5048.2606332826372
 31
0.0
 12
4141.5427252753116
 22
-5047.7606332826381
 32
0.0
 13
4141.5427252753116
 23
-5047.7606332826381
 33
0.0
  0
SOLID
  5
639
  8
Q
 62
     0
 10
4662.7927252753116
 20
-5047.2606332826372
 30
0.0
 11
4662.7927252753116
 21
-5048.2606332826372
 31
0.0
 12
4665.7927252753116
 22
-5047.7606332826381
 32
0.0
 13
4665.7927252753116
 23
-5047.7606332826381
 33
0.0
  0
TEXT
  8
Q
  40
3
  5
80B
  62
5
  72
0
  71
0
 10
4403.67
 20
-5049.16
 30
0.000000
  1
524.25
  7
ROMANS
  0
POINT
  5
63B
  8
DEFPOINTS
 62
     0
 10
4141.5427252753116
 20
-5082.3757956782283
 30
0.0
  0
POINT
  5
63C
  8
DEFPOINTS
 62
     0
 10
4665.7927252753116
 20
-5095.4198268471009
 30
0.0
  0
POINT
  5
63D
  8
DEFPOINTS
 62
     0
 10
4665.7927252753116
 20
-5047.7606332826381
 30
0.0
  0
ENDBLK
  5
3E7
  8
0
  0
BLOCK
  8
0
  2
*D34
 70
     1
 10
0.0
 20
0.0
 30
0.0
  3
*D34
  1

  0
LINE
  5
642
  8
Q
 62
     0
 10
4141.5427252753116
 20
-5082.3757956782283
 30
0.0
 11
4141.5427252753116
 21
-5062.6197838634816
 31
0.0
  0
LINE
  5
643
  8
Q
 62
     0
 10
4641.5427252753116
 20
-5082.3757956782283
 30
0.0
 11
4641.5427252753116
 21
-5062.6197838634816
 31
0.0
  0
LINE
  5
644
  8
Q
 62
     0
 10
4144.5427252753107
 20
-5063.6197838634826
 30
0.0
 11
4638.5427252753107
 21
-5063.6197838634826
 31
0.0
  0
SOLID
  5
645
  8
Q
 62
     0
 10
4144.5427252753107
 20
-5063.1197838634816
 30
0.0
 11
4144.5427252753107
 21
-5064.1197838634816
 31
0.0
 12
4141.5427252753116
 22
-5063.6197838634826
 32
0.0
 13
4141.5427252753116
 23
-5063.6197838634826
 33
0.0
  0
SOLID
  5
646
  8
Q
 62
     0
 10
4638.5427252753107
 20
-5063.1197838634816
 30
0.0
 11
4638.5427252753107
 21
-5064.1197838634816
 31
0.0
 12
4641.5427252753116
 22
-5063.6197838634826
 32
0.0
 13
4641.5427252753116
 23
-5063.6197838634826
 33
0.0
  0
TEXT
  8
Q
  40
3
  5
80C
  62
5
  72
0
  71
0
 10
4391.54
 20
-5065.02
 30
0.000000
  1
500%%P1
  7
ROMANS
  0
POINT
  5
648
  8
DEFPOINTS
 62
     0
 10
4141.5427252753116
 20
-5083.3757956782292
 30
0.0
  0
POINT
  5
649
  8
DEFPOINTS
 62
     0
 10
4641.5427252753116
 20
-5083.3757956782292
 30
0.0
  0
POINT
  5
64A
  8
DEFPOINTS
 62
     0
 10
4641.5427252753116
 20
-5063.6197838634826
 30
0.0
  0
ENDBLK
  5
3F3
  8
0
  0
BLOCK
  8
0
  2
*D35
 70
     1
 10
0.0
 20
0.0
 30
0.0
  3
*D35
  1

  0
LINE
  5
729
  8
Q
 62
     0
 10
4166.6927252753121
 20
-5081.3757956782283
 30
0.0
 11
4166.6927252753121
 21
-5070.3264548678189
 31
0.0
  0
LINE
  5
72A
  8
Q
 62
     0
 10
4182.3267252753139
 20
-5081.3757956782283
 30
0.0
 11
4182.3267252753139
 21
-5070.3264548678189
 31
0.0
  0
LINE
  5
72B
  8
Q
 62
     0
 10
4169.6927252753121
 20
-5071.326454867818
 30
0.0
 11
4179.3267252753139
 21
-5071.326454867818
 31
0.0
  0
SOLID
  5
72C
  8
Q
 62
     0
 10
4169.6927252753121
 20
-5070.8264548678189
 30
0.0
 11
4169.6927252753121
 21
-5071.8264548678189
 31
0.0
 12
4166.6927252753121
 22
-5071.326454867818
 32
0.0
 13
4166.6927252753121
 23
-5071.326454867818
 33
0.0
  0
SOLID
  5
72D
  8
Q
 62
     0
 10
4179.3267252753139
 20
-5070.8264548678189
 30
0.0
 11
4179.3267252753139
 21
-5071.8264548678189
 31
0.0
 12
4182.3267252753139
 22
-5071.326454867818
 32
0.0
 13
4182.3267252753139
 23
-5071.326454867818
 33
0.0
  0
TEXT
  8
Q
  40
3
  5
80D
  62
5
  72
0
  71
0
 10
4174.26
 20
-5072.73
 30
0.000000
  1
15.63
  7
ROMANS
  0
POINT
  5
72F
  8
DEFPOINTS
 62
     0
 10
4166.6927252753121
 20
-5082.3757956782283
 30
0.0
  0
POINT
  5
730
  8
DEFPOINTS
 62
     0
 10
4182.3267252753139
 20
-5082.3757956782283
 30
0.0
  0
POINT
  5
731
  8
DEFPOINTS
 62
     0
 10
4182.3267252753139
 20
-5071.326454867818
 30
0.0
  0
ENDBLK
  5
3FF
  8
0
  0
BLOCK
  8
0
  2
*D36
 70
     1
 10
0.0
 20
0.0
 30
0.0
  3
*D36
  1

  0
LINE
  5
6AE
  8
Q
 62
     0
 10
4182.3267252753139
 20
-5081.3757956782283
 30
0.0
 11
4182.3267252753139
 21
-5070.2795930875973
 31
0.0
  0
LINE
  5
6AF
  8
Q
 62
     0
 10
4197.8567252753137
 20
-5081.3757956782283
 30
0.0
 11
4197.8567252753137
 21
-5070.2795930875973
 31
0.0
  0
LINE
  5
6B0
  8
Q
 62
     0
 10
4179.3267252753139
 20
-5071.2795930875964
 30
0.0
 11
4176.3267252753139
 21
-5071.2795930875964
 31
0.0
  0
LINE
  5
6B1
  8
Q
 62
     0
 10
4200.8567252753137
 20
-5071.2795930875964
 30
0.0
 11
4235.1424395610293
 21
-5071.2795930875964
 31
0.0
  0
SOLID
  5
6B2
  8
Q
 62
     0
 10
4179.3267252753139
 20
-5070.7795930875964
 30
0.0
 11
4179.3267252753139
 21
-5071.7795930875973
 31
0.0
 12
4182.3267252753139
 22
-5071.2795930875964
 32
0.0
 13
4182.3267252753139
 23
-5071.2795930875964
 33
0.0
  0
SOLID
  5
6B3
  8
Q
 62
     0
 10
4200.8567252753137
 20
-5070.7795930875964
 30
0.0
 11
4200.8567252753137
 21
-5071.7795930875973
 31
0.0
 12
4197.8567252753137
 22
-5071.2795930875964
 32
0.0
 13
4197.8567252753137
 23
-5071.2795930875964
 33
0.0
  0
TEXT
  8
Q
  40
3
  5
80E
  62
5
  72
0
  71
0
 10
4219.50
 20
-5072.68
 30
0.000000
  1
PASSO 15.53
  7
ROMANS
  0
POINT
  5
6B5
  8
DEFPOINTS
 62
     0
 10
4182.3267252753139
 20
-5082.3757956782283
 30
0.0
  0
POINT
  5
6B6
  8
DEFPOINTS
 62
     0
 10
4197.8567252753137
 20
-5082.3757956782283
 30
0.0
  0
POINT
  5
6B7
  8
DEFPOINTS
 62
     0
 10
4197.8567252753137
 20
-5071.2795930875964
 30
0.0
  0
ENDBLK
  5
40C
  8
0
  0
BLOCK
  8
0
  2
*D37
 70
     1
 10
0.0
 20
0.0
 30
0.0
  3
*D37
  1

  0
LINE
  5
6A0
  8
Q
 62
     0
 10
4198.7467252753149
 20
-5089.5557956782277
 30
0.0
 11
4238.3365173622096
 21
-5089.5557956782277
 31
0.0
  0
LINE
  5
6A1
  8
Q
 62
     0
 10
4198.7467252753149
 20
-5089.4557956782273
 30
0.0
 11
4238.3365173622096
 21
-5089.4557956782273
 31
0.0
  0
LINE
  5
6A2
  8
Q
 62
     0
 10
4237.3365173622096
 20
-5092.5557956782277
 30
0.0
 11
4237.3365173622096
 21
-5095.5557956782277
 31
0.0
  0
LINE
  5
6A3
  8
Q
 62
     0
 10
4237.3365173622096
 20
-5086.4557956782282
 30
0.0
 11
4237.3365173622096
 21
-5074.1406708843861
 31
0.0
  0
SOLID
  5
6A4
  8
Q
 62
     0
 10
4236.8365173622115
 20
-5092.5557956782277
 30
0.0
 11
4237.8365173622096
 21
-5092.5557956782277
 31
0.0
 12
4237.3365173622096
 22
-5089.5557956782277
 32
0.0
 13
4237.3365173622096
 23
-5089.5557956782277
 33
0.0
  0
SOLID
  5
6A5
  8
Q
 62
     0
 10
4236.8365173622115
 20
-5086.4557956782282
 30
0.0
 11
4237.8365173622096
 21
-5086.4557956782282
 31
0.0
 12
4237.3365173622096
 22
-5089.4557956782273
 32
0.0
 13
4237.3365173622096
 23
-5089.4557956782273
 33
0.0
  0
TEXT
  8
Q
  40
3
  5
80F
  62
5
  72
0
  71
0
 10
4234.84
 20
-5081.75
 30
0.000000
  1
0.1
  7
ROMANS
  0
POINT
  5
6A7
  8
DEFPOINTS
 62
     0
 10
4197.746725275314
 20
-5089.5557956782277
 30
0.0
  0
POINT
  5
6A8
  8
DEFPOINTS
 62
     0
 10
4197.746725275314
 20
-5089.4557956782273
 30
0.0
  0
POINT
  5
6A9
  8
DEFPOINTS
 62
     0
 10
4237.3365173622096
 20
-5089.4557956782273
 30
0.0
  0
ENDBLK
  5
419
  8
0
  0
BLOCK
  8
0
  2
*D38
 70
     1
 10
0.0
 20
0.0
 30
0.0
  3
*D38
  1

  0
LINE
  5
692
  8
Q
 62
     0
 10
4197.746725275314
 20
-5084.0757956782272
 30
0.0
 11
4197.746725275314
 21
-5131.7464899149163
 31
0.0
  0
LINE
  5
693
  8
Q
 62
     0
 10
4198.0467252753142
 20
-5084.0757956782272
 30
0.0
 11
4198.0467252753142
 21
-5131.7464899149163
 31
0.0
  0
LINE
  5
694
  8
Q
 62
     0
 10
4194.746725275314
 20
-5130.7464899149154
 30
0.0
 11
4191.746725275314
 21
-5130.7464899149154
 31
0.0
  0
LINE
  5
695
  8
Q
 62
     0
 10
4201.0467252753142
 20
-5130.7464899149154
 30
0.0
 11
4212.3324395610289
 21
-5130.7464899149154
 31
0.0
  0
SOLID
  5
696
  8
Q
 62
     0
 10
4194.746725275314
 20
-5130.2464899149163
 30
0.0
 11
4194.746725275314
 21
-5131.2464899149154
 31
0.0
 12
4197.746725275314
 22
-5130.7464899149154
 32
0.0
 13
4197.746725275314
 23
-5130.7464899149154
 33
0.0
  0
SOLID
  5
697
  8
Q
 62
     0
 10
4201.0467252753142
 20
-5130.2464899149163
 30
0.0
 11
4201.0467252753142
 21
-5131.2464899149154
 31
0.0
 12
4198.0467252753142
 22
-5130.7464899149154
 32
0.0
 13
4198.0467252753142
 23
-5130.7464899149154
 33
0.0
  0
TEXT
  8
Q
  40
3
  5
810
  62
5
  72
0
  71
0
 10
4208.19
 20
-5132.15
 30
0.000000
  1
0.3
  7
ROMANS
  0
POINT
  5
699
  8
DEFPOINTS
 62
     0
 10
4197.746725275314
 20
-5083.0757956782272
 30
0.0
  0
POINT
  5
69A
  8
DEFPOINTS
 62
     0
 10
4198.0467252753142
 20
-5083.0757956782272
 30
0.0
  0
POINT
  5
69B
  8
DEFPOINTS
 62
     0
 10
4198.0467252753142
 20
-5130.7464899149154
 30
0.0
  0
ENDBLK
  5
426
  8
0
  0
BLOCK
  8
0
  2
*D39
 70
     1
 10
0.0
 20
0.0
 30
0.0
  3
*D39
  1

  0
LINE
  5
700
  8
Q
 62
     0
 10
4141.5427252753097
 20
-5092.575795678229
 30
0.0
 11
4141.5427252753097
 21
-5134.2793763210138
 31
0.0
  0
LINE
  5
701
  8
Q
 62
     0
 10
4142.7927252753107
 20
-5114.8757956782283
 30
0.0
 11
4142.7927252753107
 21
-5134.2793763210138
 31
0.0
  0
LINE
  5
702
  8
Q
 62
     0
 10
4138.5427252753107
 20
-5133.2793763210138
 30
0.0
 11
4135.5427252753097
 21
-5133.2793763210138
 31
0.0
  0
LINE
  5
703
  8
Q
 62
     0
 10
4145.7927252753107
 20
-5133.2793763210138
 30
0.0
 11
4158.4574385038613
 21
-5133.2793763210138
 31
0.0
  0
SOLID
  5
704
  8
Q
 62
     0
 10
4138.5427252753107
 20
-5132.7793763210138
 30
0.0
 11
4138.5427252753107
 21
-5133.7793763210129
 31
0.0
 12
4141.5427252753097
 22
-5133.2793763210138
 32
0.0
 13
4141.5427252753097
 23
-5133.2793763210138
 33
0.0
  0
SOLID
  5
705
  8
Q
 62
     0
 10
4145.7927252753107
 20
-5132.7793763210138
 30
0.0
 11
4145.7927252753107
 21
-5133.7793763210129
 31
0.0
 12
4142.7927252753107
 22
-5133.2793763210138
 32
0.0
 13
4142.7927252753107
 23
-5133.2793763210138
 33
0.0
  0
TEXT
  8
Q
  40
3
  5
811
  62
5
  72
0
  71
0
 10
4154.53
 20
-5134.68
 30
0.000000
  1
1.3
  7
ROMANS
  0
POINT
  5
707
  8
DEFPOINTS
 62
     0
 10
4141.5427252753097
 20
-5091.5757956782272
 30
0.0
  0
POINT
  5
708
  8
DEFPOINTS
 62
     0
 10
4142.7927252753107
 20
-5113.8757956782292
 30
0.0
  0
POINT
  5
709
  8
DEFPOINTS
 62
     0
 10
4142.7927252753107
 20
-5133.2793763210138
 30
0.0
  0
ENDBLK
  5
433
  8
0
  0
BLOCK
  8
0
  2
*D40
 70
     1
 10
0.0
 20
0.0
 30
0.0
  3
*D40
  1

  0
LINE
  5
70E
  8
Q
 62
     0
 10
4167.9927252753114
 20
-5121.6757956782276
 30
0.0
 11
4178.5251387829903
 21
-5121.6757956782276
 31
0.0
  0
LINE
  5
70F
  8
Q
 62
     0
 10
4167.6927252753121
 20
-5122.3757956782283
 30
0.0
 11
4178.5251387829903
 21
-5122.3757956782283
 31
0.0
  0
LINE
  5
710
  8
Q
 62
     0
 10
4177.5251387829903
 20
-5118.6757956782276
 30
0.0
 11
4177.5251387829903
 21
-5115.6757956782276
 31
0.0
  0
LINE
  5
711
  8
Q
 62
     0
 10
4177.5251387829903
 20
-5125.3757956782292
 30
0.0
 11
4177.5251387829903
 21
-5136.6615099639439
 31
0.0
  0
SOLID
  5
712
  8
Q
 62
     0
 10
4177.0251387829894
 20
-5118.6757956782276
 30
0.0
 11
4178.0251387829912
 21
-5118.6757956782276
 31
0.0
 12
4177.5251387829903
 22
-5121.6757956782276
 32
0.0
 13
4177.5251387829903
 23
-5121.6757956782276
 33
0.0
  0
SOLID
  5
713
  8
Q
 62
     0
 10
4177.0251387829894
 20
-5125.3757956782292
 30
0.0
 11
4178.0251387829912
 21
-5125.3757956782292
 31
0.0
 12
4177.5251387829903
 22
-5122.3757956782283
 32
0.0
 13
4177.5251387829903
 23
-5122.3757956782283
 33
0.0
  0
TEXT
  8
Q
  40
3
  5
812
  62
5
  72
0
  71
0
 10
4175.03
 20
-5136.42
 30
0.000000
  1
0.7
  7
ROMANS
  0
POINT
  5
715
  8
DEFPOINTS
 62
     0
 10
4166.9927252753114
 20
-5121.6757956782276
 30
0.0
  0
POINT
  5
716
  8
DEFPOINTS
 62
     0
 10
4166.6927252753121
 20
-5122.3757956782283
 30
0.0
  0
POINT
  5
717
  8
DEFPOINTS
 62
     0
 10
4177.5251387829903
 20
-5122.3757956782283
 30
0.0
  0
ENDBLK
  5
440
  8
0
  0
BLOCK
  8
0
  2
*D41
 70
     1
 10
0.0
 20
0.0
 30
0.0
  3
*D41
  1

  0
LINE
  5
6F3
  8
Q
 62
     0
 10
4152.2927252753107
 20
-5092.575795678229
 30
0.0
 11
4133.3071332967274
 21
-5092.575795678229
 31
0.0
  0
LINE
  5
6F4
  8
Q
 62
     0
 10
4152.4253982873333
 20
-5106.3757956782283
 30
0.0
 11
4133.3071332967274
 21
-5106.3757956782283
 31
0.0
  0
LINE
  5
6F5
  8
Q
 62
     0
 10
4134.3071332967284
 20
-5095.575795678229
 30
0.0
 11
4134.3071332967284
 21
-5103.3757956782283
 31
0.0
  0
SOLID
  5
6F6
  8
Q
 62
     0
 10
4133.8071332967274
 20
-5095.575795678229
 30
0.0
 11
4134.8071332967274
 21
-5095.575795678229
 31
0.0
 12
4134.3071332967284
 22
-5092.575795678229
 32
0.0
 13
4134.3071332967284
 23
-5092.575795678229
 33
0.0
  0
SOLID
  5
6F7
  8
Q
 62
     0
 10
4133.8071332967274
 20
-5103.3757956782283
 30
0.0
 11
4134.8071332967274
 21
-5103.3757956782283
 31
0.0
 12
4134.3071332967284
 22
-5106.3757956782283
 32
0.0
 13
4134.3071332967284
 23
-5106.3757956782283
 33
0.0
  0
TEXT
  8
Q
  40
3
  5
813
  62
5
  72
0
  71
0
 10
4131.81
 20
-5103.28
 30
0.000000
  1
13.8
  7
ROMANS
  0
POINT
  5
6F9
  8
DEFPOINTS
 62
     0
 10
4153.2927252753116
 20
-5092.575795678229
 30
0.0
  0
POINT
  5
6FA
  8
DEFPOINTS
 62
     0
 10
4153.4253982873333
 20
-5106.3757956782283
 30
0.0
  0
POINT
  5
6FB
  8
DEFPOINTS
 62
     0
 10
4134.3071332967284
 20
-5106.3757956782283
 30
0.0
  0
ENDBLK
  5
44C
  8
0
  0
BLOCK
  8
0
  2
*D42
 70
     1
 10
0.0
 20
0.0
 30
0.0
  3
*D42
  1

  0
LINE
  5
6D8
  8
Q
 62
     0
 10
4155.6188719981346
 20
-5089.3586755685874
 30
0.0
 11
4161.0735327955772
 21
-5089.3586755685874
 31
0.0
  0
LINE
  5
6D9
  8
Q
 62
     0
 10
4157.1645931225084
 20
-5112.8757956782283
 30
0.0
 11
4161.0735327955772
 21
-5112.8757956782283
 31
0.0
  0
LINE
  5
6DA
  8
Q
 62
     0
 10
4160.0735327955781
 20
-5092.3586755685874
 30
0.0
 11
4160.0735327955781
 21
-5109.8757956782283
 31
0.0
  0
SOLID
  5
6DB
  8
Q
 62
     0
 10
4159.5735327955772
 20
-5092.3586755685874
 30
0.0
 11
4160.5735327955763
 21
-5092.3586755685874
 31
0.0
 12
4160.0735327955781
 22
-5089.3586755685874
 32
0.0
 13
4160.0735327955781
 23
-5089.3586755685874
 33
0.0
  0
SOLID
  5
6DC
  8
Q
 62
     0
 10
4159.5735327955772
 20
-5109.8757956782283
 30
0.0
 11
4160.5735327955763
 21
-5109.8757956782283
 31
0.0
 12
4160.0735327955781
 22
-5112.8757956782283
 32
0.0
 13
4160.0735327955781
 23
-5112.8757956782283
 33
0.0
  0
TEXT
  8
Q
  40
3
  5
814
  62
5
  72
0
  71
0
 10
4157.57
 20
-5102.73
 30
0.000000
  1
23.5
  7
ROMANS
  0
POINT
  5
6DE
  8
DEFPOINTS
 62
     0
 10
4154.6188719981355
 20
-5089.3586755685874
 30
0.0
  0
POINT
  5
6DF
  8
DEFPOINTS
 62
     0
 10
4156.1645931225066
 20
-5112.8757956782283
 30
0.0
  0
POINT
  5
6E0
  8
DEFPOINTS
 62
     0
 10
4160.0735327955781
 20
-5112.8757956782283
 30
0.0
  0
ENDBLK
  5
458
  8
0
  0
BLOCK
  8
0
  2
*D43
 70
     1
 10
0.0
 20
0.0
 30
0.0
  3
*D43
  1

  0
LINE
  5
6BC
  8
Q
 62
     0
 10
4145.2292169484163
 20
-5113.8757956782292
 30
0.0
 11
4131.7850662403962
 21
-5113.8757956782292
 31
0.0
  0
LINE
  5
6BD
  8
Q
 62
     0
 10
4142.7927252753107
 20
-5122.3757956782283
 30
0.0
 11
4131.7850662403962
 21
-5122.3757956782283
 31
0.0
  0
LINE
  5
6BE
  8
Q
 62
     0
 10
4132.7850662403962
 20
-5110.8757956782292
 30
0.0
 11
4132.7850662403962
 21
-5107.8757956782292
 31
0.0
  0
LINE
  5
6BF
  8
Q
 62
     0
 10
4132.7850662403962
 20
-5125.3757956782292
 30
0.0
 11
4132.7850662403962
 21
-5136.6615099639439
 31
0.0
  0
SOLID
  5
6C0
  8
Q
 62
     0
 10
4132.2850662403962
 20
-5110.8757956782292
 30
0.0
 11
4133.2850662403962
 21
-5110.8757956782292
 31
0.0
 12
4132.7850662403962
 22
-5113.8757956782292
 32
0.0
 13
4132.7850662403962
 23
-5113.8757956782292
 33
0.0
  0
SOLID
  5
6C1
  8
Q
 62
     0
 10
4132.2850662403962
 20
-5125.3757956782292
 30
0.0
 11
4133.2850662403962
 21
-5125.3757956782292
 31
0.0
 12
4132.7850662403962
 22
-5122.3757956782283
 32
0.0
 13
4132.7850662403962
 23
-5122.3757956782283
 33
0.0
  0
TEXT
  8
Q
  40
3
  5
815
  62
5
  72
0
  71
0
 10
4130.29
 20
-5136.42
 30
0.000000
  1
8.5
  7
ROMANS
  0
POINT
  5
6C3
  8
DEFPOINTS
 62
     0
 10
4146.2292169484163
 20
-5113.8757956782292
 30
0.0
  0
POINT
  5
6C4
  8
DEFPOINTS
 62
     0
 10
4143.7927252753116
 20
-5122.3757956782283
 30
0.0
  0
POINT
  5
6C5
  8
DEFPOINTS
 62
     0
 10
4132.7850662403962
 20
-5122.3757956782283
 30
0.0
  0
ENDBLK
  5
465
  8
0
  0
BLOCK
  8
0
  2
*D44
 70
     1
 10
0.0
 20
0.0
 30
0.0
  3
*D44
  1

  0
LINE
  5
7F2
  8
Q
 62
     0
 10
4617.1667252753059
 20
-5081.3757956782283
 30
0.0
 11
4617.1667252753059
 21
-5072.8068521720352
 31
0.0
  0
LINE
  5
7F3
  8
Q
 62
     0
 10
4632.7927252753107
 20
-5082.0757956782281
 30
0.0
 11
4632.7927252753107
 21
-5072.8068521720352
 31
0.0
  0
LINE
  5
7F4
  8
Q
 62
     0
 10
4620.1667252753059
 20
-5073.8068521720352
 30
0.0
 11
4629.7927252753107
 21
-5073.8068521720352
 31
0.0
  0
SOLID
  5
7F5
  8
Q
 62
     0
 10
4620.1667252753059
 20
-5073.3068521720352
 30
0.0
 11
4620.1667252753059
 21
-5074.3068521720361
 31
0.0
 12
4617.1667252753059
 22
-5073.8068521720352
 32
0.0
 13
4617.1667252753059
 23
-5073.8068521720352
 33
0.0
  0
SOLID
  5
7F6
  8
Q
 62
     0
 10
4629.7927252753107
 20
-5073.3068521720352
 30
0.0
 11
4629.7927252753107
 21
-5074.3068521720361
 31
0.0
 12
4632.7927252753107
 22
-5073.8068521720352
 32
0.0
 13
4632.7927252753107
 23
-5073.8068521720352
 33
0.0
  0
TEXT
  8
Q
  40
3
  5
816
  62
5
  72
0
  71
0
 10
4624.46
 20
-5075.21
 30
0.000000
  1
15.63
  7
ROMANS
  0
POINT
  5
7F8
  8
DEFPOINTS
 62
     0
 10
4617.1667252753059
 20
-5082.3757956782283
 30
0.0
  0
POINT
  5
7F9
  8
DEFPOINTS
 62
     0
 10
4632.7927252753107
 20
-5083.075795678229
 30
0.0
  0
POINT
  5
7FA
  8
DEFPOINTS
 62
     0
 10
4632.7927252753107
 20
-5073.8068521720352
 30
0.0
  0
ENDBLK
  5
500
  8
0
  0
BLOCK
  8
0
  2
*D45
 70
     1
 10
0.0
 20
0.0
 30
0.0
  3
*D45
  1

  0
LINE
  5
787
  8
Q
 62
     0
 10
4633.3427252753108
 20
-5114.5757956782281
 30
0.0
 11
4633.3427252753108
 21
-5133.4630653025606
 31
0.0
  0
LINE
  5
788
  8
Q
 62
     0
 10
4640.2927252753107
 20
-5115.8757956782283
 30
0.0
 11
4640.2927252753107
 21
-5133.4630653025606
 31
0.0
  0
LINE
  5
789
  8
Q
 62
     0
 10
4643.2927252753107
 20
-5132.4630653025624
 30
0.0
 11
4646.2927252753107
 21
-5132.4630653025624
 31
0.0
  0
LINE
  5
78A
  8
Q
 62
     0
 10
4630.3427252753108
 20
-5132.4630653025624
 30
0.0
 11
4619.3427252753118
 21
-5132.4630653025624
 31
0.0
  0
SOLID
  5
78B
  8
Q
 62
     0
 10
4643.2927252753107
 20
-5131.9630653025624
 30
0.0
 11
4643.2927252753107
 21
-5132.9630653025606
 31
0.0
 12
4640.2927252753107
 22
-5132.4630653025624
 32
0.0
 13
4640.2927252753107
 23
-5132.4630653025624
 33
0.0
  0
SOLID
  5
78C
  8
Q
 62
     0
 10
4630.3427252753108
 20
-5131.9630653025624
 30
0.0
 11
4630.3427252753108
 21
-5132.9630653025606
 31
0.0
 12
4633.3427252753108
 22
-5132.4630653025624
 32
0.0
 13
4633.3427252753108
 23
-5132.4630653025624
 33
0.0
  0
TEXT
  8
Q
  40
3
  5
817
  62
5
  72
0
  71
0
 10
4623.34
 20
-5133.86
 30
0.000000
  1
6.9
  7
ROMANS
  0
POINT
  5
78E
  8
DEFPOINTS
 62
     0
 10
4633.3427252753108
 20
-5113.575795678229
 30
0.0
  0
POINT
  5
78F
  8
DEFPOINTS
 62
     0
 10
4640.2927252753107
 20
-5114.8757956782283
 30
0.0
  0
POINT
  5
790
  8
DEFPOINTS
 62
     0
 10
4640.2927252753107
 20
-5132.4630653025624
 30
0.0
  0
ENDBLK
  5
50D
  8
0
  0
BLOCK
  8
0
  2
*D46
 70
     1
 10
0.0
 20
0.0
 30
0.0
  3
*D46
  1

  0
LINE
  5
7E4
  8
Q
 62
     0
 10
4640.2927252753107
 20
-5122.3757956782283
 30
0.0
 11
4640.2927252753107
 21
-5159.8400269430713
 31
0.0
  0
LINE
  5
7E5
  8
Q
 62
     0
 10
4641.5427252753116
 20
-5105.8757956782292
 30
0.0
 11
4641.5427252753116
 21
-5159.8400269430713
 31
0.0
  0
LINE
  5
7E6
  8
Q
 62
     0
 10
4637.2927252753107
 20
-5158.8400269430713
 30
0.0
 11
4634.2927252753107
 21
-5158.8400269430713
 31
0.0
  0
LINE
  5
7E7
  8
Q
 62
     0
 10
4644.5427252753107
 20
-5158.8400269430713
 30
0.0
 11
4658.257010989596
 21
-5158.8400269430713
 31
0.0
  0
SOLID
  5
7E8
  8
Q
 62
     0
 10
4637.2927252753107
 20
-5158.3400269430713
 30
0.0
 11
4637.2927252753107
 21
-5159.3400269430722
 31
0.0
 12
4640.2927252753107
 22
-5158.8400269430713
 32
0.0
 13
4640.2927252753107
 23
-5158.8400269430713
 33
0.0
  0
SOLID
  5
7E9
  8
Q
 62
     0
 10
4644.5427252753107
 20
-5158.3400269430713
 30
0.0
 11
4644.5427252753107
 21
-5159.3400269430722
 31
0.0
 12
4641.5427252753116
 22
-5158.8400269430713
 32
0.0
 13
4641.5427252753116
 23
-5158.8400269430713
 33
0.0
  0
TEXT
  8
Q
  40
3
  5
818
  62
5
  72
0
  71
0
 10
4652.90
 20
-5160.24
 30
0.000000
  1
1.25
  7
ROMANS
  0
POINT
  5
7EB
  8
DEFPOINTS
 62
     0
 10
4640.2927252753107
 20
-5121.3757956782283
 30
0.0
  0
POINT
  5
7EC
  8
DEFPOINTS
 62
     0
 10
4641.5427252753116
 20
-5104.8757956782283
 30
0.0
  0
POINT
  5
7ED
  8
DEFPOINTS
 62
     0
 10
4641.5427252753116
 20
-5158.8400269430713
 30
0.0
  0
ENDBLK
  5
548
  8
0
  0
BLOCK
  8
0
  2
*D47
 70
     1
 10
0.0
 20
0.0
 30
0.0
  3
*D47
  1

  0
LINE
  5
795
  8
Q
 62
     0
 10
4640.2927252753107
 20
-5122.3757956782283
 30
0.0
 11
4674.659333330068
 21
-5122.3757956782283
 31
0.0
  0
LINE
  5
796
  8
Q
 62
     0
 10
4635.6427252753119
 20
-5105.8757956782292
 30
0.0
 11
4674.659333330068
 21
-5105.8757956782292
 31
0.0
  0
LINE
  5
797
  8
Q
 62
     0
 10
4673.659333330068
 20
-5119.3757956782283
 30
0.0
 11
4673.659333330068
 21
-5108.8757956782283
 31
0.0
  0
SOLID
  5
798
  8
Q
 62
     0
 10
4673.159333330068
 20
-5119.3757956782283
 30
0.0
 11
4674.1593333300671
 21
-5119.3757956782283
 31
0.0
 12
4673.659333330068
 22
-5122.3757956782283
 32
0.0
 13
4673.659333330068
 23
-5122.3757956782283
 33
0.0
  0
SOLID
  5
799
  8
Q
 62
     0
 10
4673.159333330068
 20
-5108.8757956782283
 30
0.0
 11
4674.1593333300671
 21
-5108.8757956782283
 31
0.0
 12
4673.659333330068
 22
-5105.8757956782292
 32
0.0
 13
4673.659333330068
 23
-5105.8757956782292
 33
0.0
  0
TEXT
  8
Q
  40
3
  5
819
  62
5
  72
0
  71
0
 10
4671.16
 20
-5118.46
 30
0.000000
  1
16.5
  7
ROMANS
  0
POINT
  5
79B
  8
DEFPOINTS
 62
     0
 10
4639.2927252753116
 20
-5122.3757956782283
 30
0.0
  0
POINT
  5
79C
  8
DEFPOINTS
 62
     0
 10
4634.6427252753119
 20
-5105.8757956782292
 30
0.0
  0
POINT
  5
79D
  8
DEFPOINTS
 62
     0
 10
4673.659333330068
 20
-5105.8757956782292
 30
0.0
  0
ENDBLK
  5
554
  8
0
  0
BLOCK
  8
0
  2
*D48
 70
     1
 10
0.0
 20
0.0
 30
0.0
  3
*D48
  1

  0
LINE
  5
77A
  8
Q
 62
     0
 10
4640.2927252753107
 20
-5113.8757956782292
 30
0.0
 11
4652.6635950867876
 21
-5113.8757956782292
 31
0.0
  0
LINE
  5
77B
  8
Q
 62
     0
 10
4640.2927252753107
 20
-5122.3757956782283
 30
0.0
 11
4652.6635950867876
 21
-5122.3757956782283
 31
0.0
  0
LINE
  5
77C
  8
Q
 62
     0
 10
4651.6635950867867
 20
-5116.8757956782292
 30
0.0
 11
4651.6635950867867
 21
-5119.3757956782283
 31
0.0
  0
SOLID
  5
77D
  8
Q
 62
     0
 10
4651.1635950867876
 20
-5116.8757956782292
 30
0.0
 11
4652.1635950867867
 21
-5116.8757956782292
 31
0.0
 12
4651.6635950867867
 22
-5113.8757956782292
 32
0.0
 13
4651.6635950867867
 23
-5113.8757956782292
 33
0.0
  0
SOLID
  5
77E
  8
Q
 62
     0
 10
4651.1635950867876
 20
-5119.3757956782283
 30
0.0
 11
4652.1635950867867
 21
-5119.3757956782283
 31
0.0
 12
4651.6635950867867
 22
-5122.3757956782283
 32
0.0
 13
4651.6635950867867
 23
-5122.3757956782283
 33
0.0
  0
TEXT
  8
Q
  40
3
  5
81A
  62
5
  72
0
  71
0
 10
4649.16
 20
-5122.03
 30
0.000000
  1
8.5
  7
ROMANS
  0
POINT
  5
780
  8
DEFPOINTS
 62
     0
 10
4639.2927252753116
 20
-5113.8757956782292
 30
0.0
  0
POINT
  5
781
  8
DEFPOINTS
 62
     0
 10
4639.2927252753116
 20
-5122.3757956782283
 30
0.0
  0
POINT
  5
782
  8
DEFPOINTS
 62
     0
 10
4651.6635950867867
 20
-5122.3757956782283
 30
0.0
  0
ENDBLK
  5
560
  8
0
  0
BLOCK
  8
0
  2
*D49
 70
     1
 10
0.0
 20
0.0
 30
0.0
  3
*D49
  1

  0
LINE
  5
76D
  8
Q
 62
     0
 10
4640.2927252753107
 20
-5113.8757956782292
 30
0.0
 11
4649.9721322563573
 21
-5113.8757956782292
 31
0.0
  0
LINE
  5
76E
  8
Q
 62
     0
 10
4636.642725275311
 20
-5105.8757956782292
 30
0.0
 11
4649.9721322563573
 21
-5105.8757956782292
 31
0.0
  0
LINE
  5
76F
  8
Q
 62
     0
 10
4648.9721322563582
 20
-5110.8757956782292
 30
0.0
 11
4648.9721322563582
 21
-5108.8757956782283
 31
0.0
  0
SOLID
  5
770
  8
Q
 62
     0
 10
4648.4721322563573
 20
-5110.8757956782292
 30
0.0
 11
4649.4721322563591
 21
-5110.8757956782292
 31
0.0
 12
4648.9721322563582
 22
-5113.8757956782292
 32
0.0
 13
4648.9721322563582
 23
-5113.8757956782292
 33
0.0
  0
SOLID
  5
771
  8
Q
 62
     0
 10
4648.4721322563573
 20
-5108.8757956782283
 30
0.0
 11
4649.4721322563591
 21
-5108.8757956782283
 31
0.0
 12
4648.9721322563582
 22
-5105.8757956782292
 32
0.0
 13
4648.9721322563582
 23
-5105.8757956782292
 33
0.0
  0
TEXT
  8
Q
  40
3
  5
81B
  62
5
  72
0
  71
0
 10
4646.47
 20
-5113.17
 30
0.000000
  1
8
  7
ROMANS
  0
POINT
  5
773
  8
DEFPOINTS
 62
     0
 10
4639.2927252753116
 20
-5113.8757956782292
 30
0.0
  0
POINT
  5
774
  8
DEFPOINTS
 62
     0
 10
4635.6427252753119
 20
-5105.8757956782292
 30
0.0
  0
POINT
  5
775
  8
DEFPOINTS
 62
     0
 10
4648.9721322563582
 20
-5105.8757956782292
 30
0.0
  0
ENDBLK
  5
56C
  8
0
  0
BLOCK
  8
0
  2
*D50
 70
     1
 10
0.0
 20
0.0
 30
0.0
  3
*D50
  1

  0
LINE
  5
7A2
  8
Q
 62
     0
 10
4643.8427252753118
 20
-5096.8757956782283
 30
0.0
 11
4674.5665238621268
 21
-5096.8757956782283
 31
0.0
  0
LINE
  5
7A3
  8
Q
 62
     0
 10
4634.6427252753119
 20
-5105.8757956782292
 30
0.0
 11
4674.5665238621268
 21
-5105.8757956782292
 31
0.0
  0
LINE
  5
7A4
  8
Q
 62
     0
 10
4673.5665238621268
 20
-5099.8757956782292
 30
0.0
 11
4673.5665238621268
 21
-5102.8757956782292
 31
0.0
  0
SOLID
  5
7A5
  8
Q
 62
     0
 10
4673.0665238621268
 20
-5099.8757956782292
 30
0.0
 11
4674.0665238621259
 21
-5099.8757956782292
 31
0.0
 12
4673.5665238621268
 22
-5096.8757956782283
 32
0.0
 13
4673.5665238621268
 23
-5096.8757956782283
 33
0.0
  0
SOLID
  5
7A6
  8
Q
 62
     0
 10
4673.0665238621268
 20
-5102.8757956782292
 30
0.0
 11
4674.0665238621259
 21
-5102.8757956782292
 31
0.0
 12
4673.5665238621268
 22
-5105.8757956782292
 32
0.0
 13
4673.5665238621268
 23
-5105.8757956782292
 33
0.0
  0
TEXT
  8
Q
  40
3
  5
81C
  62
5
  72
0
  71
0
 10
4671.07
 20
-5105.75
 30
0.000000
  1
9
  7
ROMANS
  0
POINT
  5
7A8
  8
DEFPOINTS
 62
     0
 10
4642.8427252753108
 20
-5096.8757956782283
 30
0.0
  0
POINT
  5
7A9
  8
DEFPOINTS
 62
     0
 10
4633.642725275311
 20
-5105.8757956782292
 30
0.0
  0
POINT
  5
7AA
  8
DEFPOINTS
 62
     0
 10
4673.5665238621268
 20
-5105.8757956782292
 30
0.0
  0
ENDBLK
  5
578
  8
0
  0
BLOCK
  8
0
  2
*D51
 70
     1
 10
0.0
 20
0.0
 30
0.0
  3
*D51
  1

  0
LINE
  5
7C9
  8
Q
 62
     0
 10
4656.7927252753116
 20
-5089.9671041792981
 30
0.0
 11
4682.6900260602179
 21
-5089.9671041792981
 31
0.0
  0
LINE
  5
7CA
  8
Q
 62
     0
 10
4656.7172537548422
 20
-5109.2017101162646
 30
0.0
 11
4682.6900260602179
 21
-5109.2017101162646
 31
0.0
  0
LINE
  5
7CB
  8
Q
 62
     0
 10
4681.6900260602179
 20
-5092.9671041792972
 30
0.0
 11
4681.6900260602179
 21
-5106.2017101162637
 31
0.0
  0
SOLID
  5
7CC
  8
Q
 62
     0
 10
4681.190026060217
 20
-5092.9671041792972
 30
0.0
 11
4682.1900260602179
 21
-5092.9671041792972
 31
0.0
 12
4681.6900260602179
 22
-5089.9671041792981
 32
0.0
 13
4681.6900260602179
 23
-5089.9671041792981
 33
0.0
  0
SOLID
  5
7CD
  8
Q
 62
     0
 10
4681.190026060217
 20
-5106.2017101162637
 30
0.0
 11
4682.1900260602179
 21
-5106.2017101162637
 31
0.0
 12
4681.6900260602179
 22
-5109.2017101162646
 32
0.0
 13
4681.6900260602179
 23
-5109.2017101162646
 33
0.0
  0
TEXT
  8
Q
  40
3
  5
81D
  62
5
  72
0
  71
0
 10
4679.19
 20
-5106.02
 30
0.000000
  1
19.2
  7
ROMANS
  0
POINT
  5
7CF
  8
DEFPOINTS
 62
     0
 10
4655.7927252753107
 20
-5089.9671041792981
 30
0.0
  0
POINT
  5
7D0
  8
DEFPOINTS
 62
     0
 10
4655.7172537548431
 20
-5109.2017101162646
 30
0.0
  0
POINT
  5
7D1
  8
DEFPOINTS
 62
     0
 10
4681.6900260602179
 20
-5109.2017101162646
 30
0.0
  0
ENDBLK
  5
584
  8
0
  0
BLOCK
  8
0
  2
*D52
 70
     1
 10
0.0
 20
0.0
 30
0.0
  3
*D52
  1

  0
LINE
  5
7D6
  8
Q
 62
     0
 10
4641.5427252753116
 20
-5082.3757956782283
 30
0.0
 11
4678.3206377841871
 21
-5082.3757956782283
 31
0.0
  0
LINE
  5
7D7
  8
Q
 62
     0
 10
4656.7927252753116
 20
-5089.9671041792981
 30
0.0
 11
4678.3206377841871
 21
-5089.9671041792981
 31
0.0
  0
LINE
  5
7D8
  8
Q
 62
     0
 10
4677.3206377841871
 20
-5092.9671041792972
 30
0.0
 11
4677.3206377841871
 21
-5095.9671041792972
 31
0.0
  0
LINE
  5
7D9
  8
Q
 62
     0
 10
4677.3206377841871
 20
-5079.3757956782283
 30
0.0
 11
4677.3206377841871
 21
-5068.0900813925127
 31
0.0
  0
SOLID
  5
7DA
  8
Q
 62
     0
 10
4676.8206377841871
 20
-5092.9671041792972
 30
0.0
 11
4677.8206377841861
 21
-5092.9671041792972
 31
0.0
 12
4677.3206377841871
 22
-5089.9671041792981
 32
0.0
 13
4677.3206377841871
 23
-5089.9671041792981
 33
0.0
  0
SOLID
  5
7DB
  8
Q
 62
     0
 10
4676.8206377841871
 20
-5079.3757956782283
 30
0.0
 11
4677.8206377841861
 21
-5079.3757956782283
 31
0.0
 12
4677.3206377841871
 22
-5082.3757956782283
 32
0.0
 13
4677.3206377841871
 23
-5082.3757956782283
 33
0.0
  0
TEXT
  8
Q
  40
3
  5
81E
  62
5
  72
0
  71
0
 10
4674.82
 20
-5076.13
 30
0.000000
  1
7.6
  7
ROMANS
  0
POINT
  5
7DD
  8
DEFPOINTS
 62
     0
 10
4640.5427252753107
 20
-5082.3757956782283
 30
0.0
  0
POINT
  5
7DE
  8
DEFPOINTS
 62
     0
 10
4655.7927252753107
 20
-5089.9671041792981
 30
0.0
  0
POINT
  5
7DF
  8
DEFPOINTS
 62
     0
 10
4677.3206377841871
 20
-5089.9671041792981
 30
0.0
  0
ENDBLK
  5
591
  8
0
  0
BLOCK
  8
0
  2
*D53
 70
     1
 10
0.0
 20
0.0
 30
0.0
  3
*D53
  1

  0
LINE
  5
750
  8
Q
 62
     0
 10
4641.5427252753116
 20
-5082.3757956782283
 30
0.0
 11
4688.9187323679189
 21
-5082.3757956782283
 31
0.0
  0
LINE
  5
751
  8
Q
 62
     0
 10
4642.8427252753108
 20
-5096.8757956782283
 30
0.0
 11
4688.9187323679189
 21
-5096.8757956782283
 31
0.0
  0
LINE
  5
752
  8
Q
 62
     0
 10
4687.9187323679189
 20
-5085.3757956782283
 30
0.0
 11
4687.9187323679189
 21
-5093.8757956782283
 31
0.0
  0
SOLID
  5
753
  8
Q
 62
     0
 10
4687.4187323679189
 20
-5085.3757956782283
 30
0.0
 11
4688.4187323679189
 21
-5085.3757956782283
 31
0.0
 12
4687.9187323679189
 22
-5082.3757956782283
 32
0.0
 13
4687.9187323679189
 23
-5082.3757956782283
 33
0.0
  0
SOLID
  5
754
  8
Q
 62
     0
 10
4687.4187323679189
 20
-5093.8757956782283
 30
0.0
 11
4688.4187323679189
 21
-5093.8757956782283
 31
0.0
 12
4687.9187323679189
 22
-5096.8757956782283
 32
0.0
 13
4687.9187323679189
 23
-5096.8757956782283
 33
0.0
  0
TEXT
  8
Q
  40
3
  5
81F
  62
5
  72
0
  71
0
 10
4685.42
 20
-5093.47
 30
0.000000
  1
14.5
  7
ROMANS
  0
POINT
  5
756
  8
DEFPOINTS
 62
     0
 10
4640.5427252753107
 20
-5082.3757956782283
 30
0.0
  0
POINT
  5
757
  8
DEFPOINTS
 62
     0
 10
4641.8427252753118
 20
-5096.8757956782283
 30
0.0
  0
POINT
  5
758
  8
DEFPOINTS
 62
     0
 10
4687.9187323679189
 20
-5096.8757956782283
 30
0.0
  0
ENDBLK
  5
59D
  8
0
  0
BLOCK
  8
0
  2
*D54
 70
     1
 10
0.0
 20
0.0
 30
0.0
  3
*D54
  1

  0
LINE
  5
7BC
  8
Q
 62
     0
 10
4665.7927252753116
 20
-5100.0890538657723
 30
0.0
 11
4665.7927252753116
 21
-5064.508478250139
 31
0.0
  0
LINE
  5
7BD
  8
Q
 62
     0
 10
4654.7927252753116
 20
-5089.9671041792981
 30
0.0
 11
4654.7927252753116
 21
-5064.508478250139
 31
0.0
  0
LINE
  5
7BE
  8
Q
 62
     0
 10
4662.7927252753116
 20
-5065.5084782501399
 30
0.0
 11
4657.7927252753107
 21
-5065.5084782501399
 31
0.0
  0
SOLID
  5
7BF
  8
Q
 62
     0
 10
4662.7927252753116
 20
-5065.0084782501399
 30
0.0
 11
4662.7927252753116
 21
-5066.0084782501399
 31
0.0
 12
4665.7927252753116
 22
-5065.5084782501399
 32
0.0
 13
4665.7927252753116
 23
-5065.5084782501399
 33
0.0
  0
SOLID
  5
7C0
  8
Q
 62
     0
 10
4657.7927252753107
 20
-5065.0084782501399
 30
0.0
 11
4657.7927252753107
 21
-5066.0084782501399
 31
0.0
 12
4654.7927252753116
 22
-5065.5084782501399
 32
0.0
 13
4654.7927252753116
 23
-5065.5084782501399
 33
0.0
  0
TEXT
  8
Q
  40
3
  5
820
  62
5
  72
0
  71
0
 10
4659.94
 20
-5066.91
 30
0.000000
  1
11
  7
ROMANS
  0
POINT
  5
7C2
  8
DEFPOINTS
 62
     0
 10
4665.7927252753116
 20
-5101.0890538657732
 30
0.0
  0
POINT
  5
7C3
  8
DEFPOINTS
 62
     0
 10
4654.7927252753116
 20
-5090.9671041792981
 30
0.0
  0
POINT
  5
7C4
  8
DEFPOINTS
 62
     0
 10
4654.7927252753116
 20
-5065.5084782501399
 30
0.0
  0
ENDBLK
  5
5A9
  8
0
  0
BLOCK
  8
0
  2
*D55
 70
     1
 10
0.0
 20
0.0
 30
0.0
  3
*D55
  1

  0
LINE
  5
7AF
  8
Q
 62
     0
 10
4665.7927252753116
 20
-5094.4198268471009
 30
0.0
 11
4665.7927252753116
 21
-5056.7962324230557
 31
0.0
  0
LINE
  5
7B0
  8
Q
 62
     0
 10
4648.1677252753107
 20
-5092.575795678229
 30
0.0
 11
4648.1677252753107
 21
-5056.7962324230557
 31
0.0
  0
LINE
  5
7B1
  8
Q
 62
     0
 10
4662.7927252753116
 20
-5057.7962324230548
 30
0.0
 11
4651.1677252753107
 21
-5057.7962324230548
 31
0.0
  0
SOLID
  5
7B2
  8
Q
 62
     0
 10
4662.7927252753116
 20
-5057.2962324230548
 30
0.0
 11
4662.7927252753116
 21
-5058.2962324230557
 31
0.0
 12
4665.7927252753116
 22
-5057.7962324230548
 32
0.0
 13
4665.7927252753116
 23
-5057.7962324230548
 33
0.0
  0
SOLID
  5
7B3
  8
Q
 62
     0
 10
4651.1677252753107
 20
-5057.2962324230548
 30
0.0
 11
4651.1677252753107
 21
-5058.2962324230557
 31
0.0
 12
4648.1677252753107
 22
-5057.7962324230548
 32
0.0
 13
4648.1677252753107
 23
-5057.7962324230548
 33
0.0
  0
TEXT
  8
Q
  40
3
  5
821
  62
5
  72
0
  71
0
 10
4655.71
 20
-5059.20
 30
0.000000
  1
17.6
  7
ROMANS
  0
POINT
  5
7B5
  8
DEFPOINTS
 62
     0
 10
4665.7927252753116
 20
-5095.4198268471009
 30
0.0
  0
POINT
  5
7B6
  8
DEFPOINTS
 62
     0
 10
4648.1677252753107
 20
-5093.5757956782281
 30
0.0
  0
POINT
  5
7B7
  8
DEFPOINTS
 62
     0
 10
4648.1677252753107
 20
-5057.7962324230548
 30
0.0
  0
ENDBLK
  5
5B5
  8
0
  0
BLOCK
  8
0
  2
*U56
 70
     1
 10
0.0
 20
0.0
 30
0.0
  3
*U56
  1

  0
TEXT
  5
632
  8
0
 10
5013.4838804952969
 20
-5205.0938951089556
 30
0.0
 40
3.0
  1
497.5
  7
ROMANS
  0
ENDBLK
  5
634
  8
0
  0
BLOCK
  8
0
  2
*U57
 70
     1
 10
0.0
 20
0.0
 30
0.0
  3
*U57
  1

  0
TEXT
  5
63F
  8
0
 10
5024.1803090667254
 20
-5094.0145014485233
 30
0.0
 40
3.0
  1
524.25
  7
ROMANS
  0
ENDBLK
  5
641
  8
0
  0
BLOCK
  8
0
  2
*U58
 70
     1
 10
0.0
 20
0.0
 30
0.0
  3
*U58
  1

  0
TEXT
  5
64C
  8
0
 10
4384.3998681324538
 20
-5062.6197838634816
 30
0.0
 40
3.0
  1
500±1
  7
ROMANS
  0
ENDBLK
  5
64E
  8
0
  0
BLOCK
  8
0
  2
*U59
 70
     1
 10
0.0
 20
0.0
 30
0.0
  3
*U59
  1

  0
TEXT
  5
650
  8
0
 62
     2
 10
-229.69298672469279
 20
15.43563189035194
 30
0.0
 40
2.0
  1
Errori ammissibili 
  7
ROMANS
  0
TEXT
  5
651
  8
0
 62
     2
 10
-229.69298672469279
 20
12.10229855701861
 30
0.0
 40
2.0
  1
per quote senza 
  7
ROMANS
  0
TEXT
  5
652
  8
0
 62
     2
 10
-229.50251053421661
 20
8.7689652236852762
 30
0.0
 40
2.0
  1
tolleranza
  7
ROMANS
  0
ENDBLK
  5
654
  8
0
  0
BLOCK
  8
0
  2
*U60
 70
     1
 10
0.0
 20
0.0
 30
0.0
  3
*U60
  1

  0
TEXT
  5
656
  8
0
 62
     2
 10
-232.14093760614679
 20
39.56586674894789
 30
0.0
 40
2.5724313837417858
  1
>3 <6
  7
ROMANS
  0
ENDBLK
  5
658
  8
0
  0
BLOCK
  8
0
  2
*U61
 70
     1
 10
0.0
 20
0.0
 30
0.0
  3
*U61
  1

  0
TEXT
  5
65A
  8
0
 62
     2
 10
-233.54532766522439
 20
62.688958402985008
 30
0.0
 40
2.0
  1
>400 <1000
  7
ROMANS
  0
ENDBLK
  5
65C
  8
0
  0
BLOCK
  8
0
  2
*U62
 70
     1
 10
0.0
 20
0.0
 30
0.0
  3
*U62
  1

  0
TEXT
  5
65E
  8
0
 62
     2
 10
-232.85738990482619
 20
57.051293335411167
 30
0.0
 40
2.0
  1
>120 <400
  7
ROMANS
  0
ENDBLK
  5
660
  8
0
  0
BLOCK
  8
0
  2
*U63
 70
     1
 10
0.0
 20
0.0
 30
0.0
  3
*U63
  1

  0
TEXT
  5
662
  8
0
 62
     2
 10
-232.7198023527508
 20
51.413628267837332
 30
0.0
 40
2.0
  1
>30 <120
  7
ROMANS
  0
ENDBLK
  5
664
  8
0
  0
BLOCK
  8
0
  2
*U64
 70
     1
 10
0.0
 20
0.0
 30
0.0
  3
*U64
  1

  0
TEXT
  5
666
  8
0
 62
     2
 10
-232.14093760614679
 20
45.203531816521711
 30
0.0
 40
2.5724313837417858
  1
>6 <30
  7
ROMANS
  0
ENDBLK
  5
668
  8
0
  0
BLOCK
  8
0
  2
*U65
 70
     1
 10
0.0
 20
0.0
 30
0.0
  3
*U65
  1

  0
TEXT
  5
66A
  8
0
 62
     2
 10
-211.91637793308229
 20
33.65382837107245
 30
0.0
 40
2.5724313837417858
  1
±0.5
  7
ROMANS
  0
ENDBLK
  5
66C
  8
0
  0
BLOCK
  8
0
  2
*U66
 70
     1
 10
0.0
 20
0.0
 30
0.0
  3
*U66
  1

  0
TEXT
  5
66E
  8
0
 62
     2
 10
-227.73832772457291
 20
33.65382837107245
 30
0.0
 40
2.5724313837417858
  1
<3
  7
ROMANS
  0
ENDBLK
  5
670
  8
0
  0
BLOCK
  8
0
  2
*U67
 70
     1
 10
0.0
 20
0.0
 30
0.0
  3
*U67
  1

  0
TEXT
  5
672
  8
0
 62
     2
 10
-211.91637793308229
 20
62.116527019243222
 30
0.0
 40
2.5724313837417858
  1
±4
  7
ROMANS
  0
ENDBLK
  5
674
  8
0
  0
BLOCK
  8
0
  2
*U68
 70
     1
 10
0.0
 20
0.0
 30
0.0
  3
*U68
  1

  0
TEXT
  5
676
  8
0
 62
     2
 10
-211.91637793308229
 20
56.478861951669387
 30
0.0
 40
2.5724313837417858
  1
±3
  7
ROMANS
  0
ENDBLK
  5
678
  8
0
  0
BLOCK
  8
0
  2
*U69
 70
     1
 10
0.0
 20
0.0
 30
0.0
  3
*U69
  1

  0
TEXT
  5
67A
  8
0
 62
     2
 10
-211.91637793308229
 20
50.841196884095552
 30
0.0
 40
2.5724313837417858
  1
±1.5
  7
ROMANS
  0
ENDBLK
  5
67C
  8
0
  0
BLOCK
  8
0
  2
*U70
 70
     1
 10
0.0
 20
0.0
 30
0.0
  3
*U70
  1

  0
TEXT
  5
67E
  8
0
 62
     2
 10
-211.91637793308229
 20
45.203531816521711
 30
0.0
 40
2.5724313837417858
  1
±1
  7
ROMANS
  0
ENDBLK
  5
680
  8
0
  0
BLOCK
  8
0
  2
*U71
 70
     1
 10
0.0
 20
0.0
 30
0.0
  3
*U71
  1

  0
TEXT
  5
682
  8
0
 62
     2
 10
-211.91637793308229
 20
39.56586674894789
 30
0.0
 40
2.5724313837417858
  1
±0.7
  7
ROMANS
  0
ENDBLK
  5
684
  8
0
  0
BLOCK
  8
0
  2
*U72
 70
     1
 10
0.0
 20
0.0
 30
0.0
  3
*U72
  1

  0
TEXT
  5
686
  8
0
 62
     2
 10
-210.95328538652149
 20
28.613631131225699
 30
0.0
 40
2.5724313837417858
  1
±1°
  7
ROMANS
  0
ENDBLK
  5
688
  8
0
  0
BLOCK
  8
0
  2
*U73
 70
     1
 10
0.0
 20
0.0
 30
0.0
  3
*U73
  1

  0
TEXT
  5
68A
  8
0
 62
     2
 10
-227.34067186524771
 20
28.613631131225699
 30
0.0
 40
2.5724313837417858
  1
angoli
  7
ROMANS
  0
ENDBLK
  5
68C
  8
0
  0
BLOCK
  8
0
  2
*U74
 70
     1
 10
0.0
 20
0.0
 30
0.0
  3
*U74
  1

  0
TEXT
  5
69D
  8
0
 10
4832.9878804952987
 20
-5177.0003580808007
 30
0.0
 40
3.0
  1
0.3
  7
ROMANS
  0
ENDBLK
  5
69F
  8
0
  0
BLOCK
  8
0
  2
*U75
 70
     1
 10
0.0
 20
0.0
 30
0.0
  3
*U75
  1

  0
TEXT
  5
6AB
  8
0
 10
4864.7062440107684
 20
-5128.2516819074117
 30
0.0
 40
3.0
  1
0.1
 50
90.0
  7
ROMANS
  0
ENDBLK
  5
6AD
  8
0
  0
BLOCK
  8
0
  2
*U76
 70
     1
 10
0.0
 20
0.0
 30
0.0
  3
*U76
  1

  0
TEXT
  5
6B9
  8
0
 10
4832.6550233524422
 20
-5117.5334612534816
 30
0.0
 40
3.0
  1
PASSO 15.53
  7
ROMANS
  0
ENDBLK
  5
6BB
  8
0
  0
BLOCK
  8
0
  2
*U77
 70
     1
 10
0.0
 20
0.0
 30
0.0
  3
*U77
  1

  0
TEXT
  5
6C7
  8
0
 10
4131.7850662403962
 20
-5136.0900813925127
 30
0.0
 40
3.0
  1
8.5
 50
90.0
  7
ROMANS
  0
ENDBLK
  5
6C9
  8
0
  0
BLOCK
  8
0
  2
*U78
 70
     1
 10
0.0
 20
0.0
 30
0.0
  3
*U78
  1

  0
TEXT
  5
6D5
  8
0
 10
4126.1316835410598
 20
-5136.0900813925127
 30
0.0
 40
3.0
  1
9.5
 50
90.0
  7
ROMANS
  0
ENDBLK
  5
6D7
  8
0
  0
BLOCK
  8
0
  2
*U79
 70
     1
 10
0.0
 20
0.0
 30
0.0
  3
*U79
  1

  0
TEXT
  5
6E2
  8
0
 10
4159.0735327955781
 20
-5103.8329383733681
 30
0.0
 40
3.0
  1
23.5
 50
90.0
  7
ROMANS
  0
ENDBLK
  5
6E4
  8
0
  0
BLOCK
  8
0
  2
*U80
 70
     1
 10
0.0
 20
0.0
 30
0.0
  3
*U80
  1

  0
TEXT
  5
6F0
  8
0
 10
4124.2834596776538
 20
-5076.2329385353723
 30
0.0
 40
3.0
  1
10.2
 50
90.0
  7
ROMANS
  0
ENDBLK
  5
6F2
  8
0
  0
BLOCK
  8
0
  2
*U81
 70
     1
 10
0.0
 20
0.0
 30
0.0
  3
*U81
  1

  0
TEXT
  5
6FD
  8
0
 10
4133.3071332967284
 20
-5104.5905422251026
 30
0.0
 40
3.0
  1
13.8
 50
90.0
  7
ROMANS
  0
ENDBLK
  5
6FF
  8
0
  0
BLOCK
  8
0
  2
*U82
 70
     1
 10
0.0
 20
0.0
 30
0.0
  3
*U82
  1

  0
TEXT
  5
70B
  8
0
 10
4150.7431527895742
 20
-5132.2793763210138
 30
0.0
 40
3.0
  1
1.3
  7
ROMANS
  0
ENDBLK
  5
70D
  8
0
  0
BLOCK
  8
0
  2
*U83
 70
     1
 10
0.0
 20
0.0
 30
0.0
  3
*U83
  1

  0
TEXT
  5
719
  8
0
 10
4804.8948654315482
 20
-5183.343949558398
 30
0.0
 40
3.0
  1
0.7
 50
90.0
  7
ROMANS
  0
ENDBLK
  5
71B
  8
0
  0
BLOCK
  8
0
  2
*U84
 70
     1
 10
0.0
 20
0.0
 30
0.0
  3
*U84
  1

  0
TEXT
  5
726
  8
0
 10
4746.0202456904372
 20
-5152.4868067012567
 30
0.0
 40
3.0
  1
40
 50
90.0
  7
ROMANS
  0
ENDBLK
  5
728
  8
0
  0
BLOCK
  8
0
  2
*U85
 70
     1
 10
0.0
 20
0.0
 30
0.0
  3
*U85
  1

  0
TEXT
  5
733
  8
0
 10
4795.9820168010074
 20
-5117.5803230337042
 30
0.0
 40
3.0
  1
15.63
  7
ROMANS
  0
ENDBLK
  5
735
  8
0
  0
BLOCK
  8
0
  2
*U86
 70
     1
 10
0.0
 20
0.0
 30
0.0
  3
*U86
  1

  0
TEXT
  5
737
  8
0
 62
     1
 10
4398.5868356296214
 20
-5342.1411191230454
 30
0.0
 40
6.0
  1
POLICARBONATO 100%
  7
ESTILO1
  0
ENDBLK
  5
739
  8
0
  0
BLOCK
  8
0
  2
*U87
 70
     1
 10
0.0
 20
0.0
 30
0.0
  3
*U87
  1

  0
TEXT
  5
73B
  8
0
 62
     1
 10
4337.2796006224326
 20
-5349.7879077170919
 30
0.0
 40
4.0
  1
2206.DWG
 50
90.0
  7
ESTILO1
  0
ENDBLK
  5
73D
  8
0
  0
BLOCK
  8
0
  2
*U88
 70
     1
 10
0.0
 20
0.0
 30
0.0
  3
*U88
  1

  0
TEXT
  5
73F
  8
0
 62
     1
 10
4400.2016679026638
 20
-5306.7908934891429
 30
0.0
 40
6.0
  1
ARCOPLUS 547
  7
ESTILO1
  0
ENDBLK
  5
741
  8
0
  0
BLOCK
  8
0
  2
*U89
 70
     1
 10
0.0
 20
0.0
 30
0.0
  3
*U89
  1

  0
TEXT
  5
743
  8
Q
 62
     5
 10
4411.2998186857731
 20
-5072.4041528881908
 30
0.0
 40
3.0
  1
Lato coex
  7
ROMANS
  0
ENDBLK
  5
745
  8
0
  0
BLOCK
  8
0
  2
*U90
 70
     1
 10
0.0
 20
0.0
 30
0.0
  3
*U90
  1

  0
SOLID
  5
747
  8
Q
 62
     5
 10
4401.8355901196546
 20
-5080.1652202639834
 30
0.0
 11
4399.7467252753104
 21
-5082.3757956782283
 31
0.0
 12
4401.0057351288542
 22
-5079.6072411476698
 32
0.0
 13
4401.0057351288542
 23
-5079.6072411476698
 33
0.0
  0
POLYLINE
  5
748
  8
Q
 62
     5
 66
     1
 10
0.0
 20
0.0
 30
0.0
  0
VERTEX
  5
749
  8
Q
 62
     5
 10
4401.420662624254
 20
-5079.8862307058271
 30
0.0
  0
VERTEX
  5
74A
  8
Q
 62
     5
 10
4405.8038538295787
 20
-5073.3673252647122
 30
0.0
  0
VERTEX
  5
74B
  8
Q
 62
     5
 10
4410.8712472572006
 20
-5073.4041528881908
 30
0.0
  0
VERTEX
  5
74C
  8
Q
 62
     5
 10
4433.7283901143437
 20
-5073.4041528881908
 30
0.0
  0
SEQEND
  5
74D
  8
Q
 62
     5
  0
ENDBLK
  5
74F
  8
0
  0
BLOCK
  8
0
  2
*U91
 70
     1
 10
0.0
 20
0.0
 30
0.0
  3
*U91
  1

  0
TEXT
  5
75A
  8
0
 10
4686.9187323679198
 20
-5094.7886905803507
 30
0.0
 40
3.0
  1
14.5
 50
90.0
  7
ROMANS
  0
ENDBLK
  5
75C
  8
0
  0
BLOCK
  8
0
  2
*U92
 70
     1
 10
0.0
 20
0.0
 30
0.0
  3
*U92
  1

  0
TEXT
  5
75E
  8
0
 62
     1
 10
4565.7703459148588
 20
-5307.7201132389591
 30
0.0
 40
6.0
  1
CM
  7
ESTILO1
  0
ENDBLK
  5
760
  8
0
  0
BLOCK
  8
0
  2
*U93
 70
     1
 10
0.0
 20
0.0
 30
0.0
  3
*U93
  1

  0
TEXT
  5
762
  8
0
 62
     1
 10
4565.2751208125401
 20
-5292.764449799095
 30
0.0
 40
6.0
  1
1:1
  7
ESTILO1
  0
ENDBLK
  5
764
  8
0
  0
BLOCK
  8
0
  2
*U94
 70
     1
 10
0.0
 20
0.0
 30
0.0
  3
*U94
  1

  0
TEXT
  5
766
  8
0
 62
     1
 10
4607.0229998804834
 20
-5292.764449799095
 30
0.0
 40
6.0
  1
02.03.05
  7
ESTILO1
  0
ENDBLK
  5
768
  8
0
  0
BLOCK
  8
0
  2
*U95
 70
     1
 10
0.0
 20
0.0
 30
0.0
  3
*U95
  1

  0
TEXT
  5
76A
  8
0
 62
     1
 10
4635.0194410424592
 20
-5374.2146508021024
 30
0.0
 40
10.0
  1
2206
  7
ESTILO1
  0
ENDBLK
  5
76C
  8
0
  0
BLOCK
  8
0
  2
*U96
 70
     1
 10
0.0
 20
0.0
 30
0.0
  3
*U96
  1

  0
TEXT
  5
777
  8
0
 10
4647.9721322563582
 20
-5110.7011421391462
 30
0.0
 40
3.0
  1
8
 50
90.0
  7
ROMANS
  0
ENDBLK
  5
779
  8
0
  0
BLOCK
  8
0
  2
*U97
 70
     1
 10
0.0
 20
0.0
 30
0.0
  3
*U97
  1

  0
TEXT
  5
784
  8
0
 10
4650.6635950867894
 20
-5121.6972242496568
 30
0.0
 40
3.0
  1
8.5
 50
90.0
  7
ROMANS
  0
ENDBLK
  5
786
  8
0
  0
BLOCK
  8
0
  2
*U98
 70
     1
 10
0.0
 20
0.0
 30
0.0
  3
*U98
  1

  0
TEXT
  5
792
  8
0
 10
4623.9141538467393
 20
-5131.4630653025606
 30
0.0
 40
3.0
  1
7
  7
ROMANS
  0
ENDBLK
  5
794
  8
0
  0
BLOCK
  8
0
  2
*U99
 70
     1
 10
0.0
 20
0.0
 30
0.0
  3
*U99
  1

  0
TEXT
  5
79F
  8
0
 10
4672.6593333300689
 20
-5119.7742888194398
 30
0.0
 40
3.0
  1
16.5
 50
90.0
  7
ROMANS
  0
ENDBLK
  5
7A1
  8
0
  0
BLOCK
  8
0
  2
*U100
 70
     1
 10
0.0
 20
0.0
 30
0.0
  3
*U100
  1

  0
TEXT
  5
7AC
  8
0
 10
4672.5665238621268
 20
-5103.2087580196167
 30
0.0
 40
3.0
  1
9
 50
90.0
  7
ROMANS
  0
ENDBLK
  5
7AE
  8
0
  0
BLOCK
  8
0
  2
*U101
 70
     1
 10
0.0
 20
0.0
 30
0.0
  3
*U101
  1

  0
TEXT
  5
7B9
  8
0
 10
4650.4918071001703
 20
-5056.7962324230557
 30
0.0
 40
3.0
  1
17.6
  7
ROMANS
  0
ENDBLK
  5
7BB
  8
0
  0
BLOCK
  8
0
  2
*U102
 70
     1
 10
0.0
 20
0.0
 30
0.0
  3
*U102
  1

  0
TEXT
  5
7C6
  8
0
 10
4657.2931778834718
 20
-5064.508478250139
 30
0.0
 40
3.0
  1
11
  7
ROMANS
  0
ENDBLK
  5
7C8
  8
0
  0
BLOCK
  8
0
  2
*U103
 70
     1
 10
0.0
 20
0.0
 30
0.0
  3
*U103
  1

  0
TEXT
  5
7D3
  8
0
 10
4680.6900260602188
 20
-5107.332702720365
 30
0.0
 40
3.0
  1
19.2
 50
90.0
  7
ROMANS
  0
ENDBLK
  5
7D5
  8
0
  0
BLOCK
  8
0
  2
*U104
 70
     1
 10
0.0
 20
0.0
 30
0.0
  3
*U104
  1

  0
TEXT
  5
7E1
  8
0
 10
4676.320637784188
 20
-5075.8043671067999
 30
0.0
 40
3.0
  1
7.6
 50
90.0
  7
ROMANS
  0
ENDBLK
  5
7E3
  8
0
  0
BLOCK
  8
0
  2
*U105
 70
     1
 10
0.0
 20
0.0
 30
0.0
  3
*U105
  1

  0
TEXT
  5
7EF
  8
0
 10
5276.0553090667263
 20
-5205.0938951089556
 30
0.0
 40
3.0
  1
1.25
  7
ROMANS
  0
ENDBLK
  5
7F1
  8
0
  0
BLOCK
  8
0
  2
*U106
 70
     1
 10
0.0
 20
0.0
 30
0.0
  3
*U106
  1

  0
TEXT
  5
7FC
  8
0
 10
5246.1911392539887
 20
-5120.0607203379213
 30
0.0
 40
3.0
  1
15.63
  7
ROMANS
  0
ENDBLK
  5
7FE
  8
0
  0
BLOCK
  8
0
  2
*U107
 70
     1
 10
0.0
 20
0.0
 30
0.0
  3
*U107
  1

  0
TEXT
  5
800
  8
0
 10
4694.4962215160958
 20
-5277.8635874829761
 30
0.0
 40
4.0
  1
00 EMISSIONE DISEGNO IN DATA 02.03.05(CM)
 50
90.0
  7
ESTILO1
  0
ENDBLK
  5
802
  8
0
  0
ENDSEC
  0
SECTION
  2
ENTITIES
  0
INSERT
  5
24
  8
0
  2
SQ-A3
 10
4081.0756463229709
 20
-5405.4051068608997
 30
0.0
 41
1.5
 42
1.5
 43
1.5
  0
LINE
  5
89
  8
0
 10
4166.9927252753114
 20
-5114.5757956782272
 30
0.0
 11
4632.642725275311
 21
-5114.5757956782281
 31
0.0
  0
LINE
  5
8A
  8
0
 10
4166.9927252753114
 20
-5114.4757956782269
 30
0.0
 11
4632.642725275311
 21
-5114.4757956782278
 31
0.0
  0
LINE
  5
8B
  8
0
 10
4166.9927252753096
 20
-5108.8457956782277
 30
0.0
 11
4632.6427252753119
 21
-5108.8457956782313
 31
0.0
  0
LINE
  5
8C
  8
0
 10
4166.9927252753096
 20
-5108.7457956782282
 30
0.0
 11
4632.6427252753119
 21
-5108.74579567823
 31
0.0
  0
LINE
  5
8D
  8
0
 10
4166.9927252753096
 20
-5102.4157956782283
 30
0.0
 11
4617.1667252753059
 21
-5102.4157956782301
 31
0.0
  0
LINE
  5
8E
  8
0
 10
4166.9927252753096
 20
-5102.3157956782279
 30
0.0
 11
4617.1667252753059
 21
-5102.3157956782288
 31
0.0
  0
LINE
  5
8F
  8
0
 10
4166.9927252753096
 20
-5095.985795678228
 30
0.0
 11
4640.8427252753108
 21
-5095.985795678228
 31
0.0
  0
LINE
  5
90
  8
0
 10
4166.9927252753096
 20
-5095.8857956782294
 30
0.0
 11
4640.8427252753108
 21
-5095.8857956782294
 31
0.0
  0
LINE
  5
91
  8
0
 10
4166.9927252753096
 20
-5089.5557956782277
 30
0.0
 11
4640.8427252753108
 21
-5089.5557956782286
 31
0.0
  0
LINE
  5
92
  8
0
 10
4166.9927252753096
 20
-5089.4557956782273
 30
0.0
 11
4640.8427252753108
 21
-5089.4557956782301
 31
0.0
  0
LINE
  5
93
  8
0
 10
4166.9927252753114
 20
-5114.525795678227
 30
0.0
 11
4632.642725275311
 21
-5114.525795678228
 31
0.0
  0
LINE
  5
94
  8
0
 10
4166.9927252753096
 20
-5108.7957956782284
 30
0.0
 11
4632.6427252753119
 21
-5108.7957956782302
 31
0.0
  0
LINE
  5
95
  8
0
 10
4166.9927252753096
 20
-5102.3657956782281
 30
0.0
 11
4617.1667252753059
 21
-5102.3657956782299
 31
0.0
  0
LINE
  5
96
  8
0
 10
4166.9927252753096
 20
-5095.9357956782287
 30
0.0
 11
4632.642725275311
 21
-5095.9357956782287
 31
0.0
  0
LINE
  5
97
  8
0
 10
4166.9927252753096
 20
-5089.5057956782284
 30
0.0
 11
4632.6427252753092
 21
-5089.5057956782293
 31
0.0
  0
LINE
  5
98
  8
0
 10
4166.6927252753121
 20
-5122.3757956782283
 30
0.0
 11
4639.2927252753116
 21
-5122.3757956782283
 31
0.0
  0
LINE
  5
99
  8
0
 10
4166.9927252753114
 20
-5121.6757956782276
 30
0.0
 11
4632.3427252753118
 21
-5121.6757956782276
 31
0.0
  0
LINE
  5
9A
  8
0
 10
4166.6927252753121
 20
-5082.3757956782283
 30
0.0
 11
4640.5427252753107
 21
-5082.3757956782283
 31
0.0
  0
LINE
  5
9B
  8
0
 10
4166.9927252753114
 20
-5083.0757956782272
 30
0.0
 11
4632.6427252753092
 21
-5083.075795678229
 31
0.0
  0
DIMENSION
  5
9C
  8
Q
 62
     5
  2
*D29
 10
4640.2927252753107
 20
-5158.8400269430713
 30
0.0
 11
4391.5427252753116
 21
-5156.3400269430713
 31
0.0
 70
     0
 13
4142.7927252753107
 23
-5121.3757956782283
 33
0.0
 14
4640.2927252753107
 24
-5121.3757956782283
 34
0.0
1001
ACAD
1000
DSTYLE
1002
{
1070
   287
1070
     0
1070
    41
1040
3.0
1070
    42
1040
1.0
1070
    43
1040
1.0
1070
    44
1040
1.0
1070
   140
1040
3.0
1070
   147
1040
1.0
1070
   172
1070
     0
1070
   178
1070
     5
1070
   288
1070
     1
1070
   289
1070
     0
1070
   340
1005
20
1002
}
  0
DIMENSION
  5
AA
  8
Q
 62
     5
  2
*D33
 10
4665.7927252753116
 20
-5047.7606332826381
 30
0.0
 11
4403.6677252753107
 21
-5045.2606332826372
 31
0.0
 70
     0
 13
4141.5427252753116
 23
-5082.3757956782283
 33
0.0
 14
4665.7927252753116
 24
-5095.4198268471009
 34
0.0
1001
ACAD
1000
DSTYLE
1002
{
1070
   287
1070
     0
1070
    41
1040
3.0
1070
    42
1040
1.0
1070
    43
1040
1.0
1070
    44
1040
1.0
1070
   140
1040
3.0
1070
   147
1040
1.0
1070
   172
1070
     0
1070
   178
1070
     5
1070
   288
1070
     1
1070
   289
1070
     0
1070
   340
1005
20
1002
}
  0
DIMENSION
  5
B7
  8
Q
 62
     5
  2
*D34
 10
4641.5427252753116
 20
-5063.6197838634826
 30
0.0
 11
4391.5427252753116
 21
-5061.1197838634826
 31
0.0
 70
     0
  1
<>%%P1
 13
4141.5427252753116
 23
-5083.3757956782292
 33
0.0
 14
4641.5427252753116
 24
-5083.3757956782292
 34
0.0
1001
ACAD
1000
DSTYLE
1002
{
1070
   287
1070
     0
1070
    41
1040
3.0
1070
    42
1040
1.0
1070
    43
1040
1.0
1070
    44
1040
1.0
1070
   140
1040
3.0
1070
   147
1040
1.0
1070
   172
1070
     0
1070
   178
1070
     5
1070
   288
1070
     1
1070
   289
1070
     0
1070
   340
1005
20
1002
}
  0
INSERT
  5
C4
  8
0
 62
     1
  2
TABGALM
 10
4696.07564632297
 20
-5390.4051068608997
 30
0.0
 41
1.5
 42
1.5
 43
1.5
  0
DIMENSION
  5
147
  8
Q
 62
     5
  2
*D38
 10
4198.0467252753142
 20
-5130.7464899149154
 30
0.0
 11
4208.1895824181711
 21
-5130.7464899149154
 31
0.0
 70
   128
 13
4197.746725275314
 23
-5083.0757956782272
 33
0.0
 14
4198.0467252753142
 24
-5083.0757956782272
 34
0.0
1001
ACAD
1000
DSTYLE
1002
{
1070
   287
1070
     0
1070
    41
1040
3.0
1070
    42
1040
1.0
1070
    43
1040
1.0
1070
    44
1040
1.0
1070
   140
1040
3.0
1070
   147
1040
1.0
1070
   172
1070
     0
1070
   178
1070
     5
1070
   288
1070
     1
1070
   289
1070
     0
1070
   340
1005
20
1002
}
  0
DIMENSION
  5
155
  8
Q
 62
     5
  2
*D37
 10
4237.3365173622096
 20
-5089.4557956782273
 30
0.0
 11
4237.3365173622115
 21
-5077.8549565986696
 31
0.0
 70
   128
 13
4197.746725275314
 23
-5089.5557956782277
 33
0.0
 14
4197.746725275314
 24
-5089.4557956782273
 34
0.0
 50
90.0
1001
ACAD
1000
DSTYLE
1002
{
1070
   287
1070
     0
1070
    41
1040
3.0
1070
    42
1040
1.0
1070
    43
1040
1.0
1070
    44
1040
1.0
1070
   140
1040
3.0
1070
   147
1040
1.0
1070
   172
1070
     0
1070
   178
1070
     5
1070
   288
1070
     1
1070
   289
1070
     0
1070
   340
1005
20
1002
}
  0
DIMENSION
  5
163
  8
Q
 62
     5
  2
*D36
 10
4197.8567252753137
 20
-5071.2795930875964
 30
0.0
 11
4219.4995824181706
 21
-5071.2795930875964
 31
0.0
 70
   128
  1
PASSO <>
 13
4182.3267252753139
 23
-5082.3757956782283
 33
0.0
 14
4197.8567252753137
 24
-5082.3757956782283
 34
0.0
1001
ACAD
1000
DSTYLE
1002
{
1070
   287
1070
     0
1070
    41
1040
3.0
1070
    42
1040
1.0
1070
    43
1040
1.0
1070
    44
1040
1.0
1070
   140
1040
3.0
1070
   147
1040
1.0
1070
   172
1070
     0
1070
   178
1070
     5
1070
   288
1070
     1
1070
   289
1070
     0
1070
   340
1005
20
1002
}
  0
DIMENSION
  5
171
  8
Q
 62
     5
  2
*D43
 10
4132.7850662403962
 20
-5122.3757956782283
 30
0.0
 11
4132.7850662403971
 21
-5132.5186528210852
 31
0.0
 70
   128
 13
4146.2292169484163
 23
-5113.8757956782292
 33
0.0
 14
4143.7927252753116
 24
-5122.3757956782283
 34
0.0
 50
90.0
1001
ACAD
1000
DSTYLE
1002
{
1070
   287
1070
     0
1070
    41
1040
3.0
1070
    42
1040
1.0
1070
    43
1040
1.0
1070
    44
1040
1.0
1070
   140
1040
3.0
1070
   147
1040
1.0
1070
   172
1070
     0
1070
   178
1070
     5
1070
   271
1070
     1
1070
   288
1070
     1
1070
   289
1070
     0
1070
   340
1005
20
1002
}
  0
DIMENSION
  5
17F
  8
Q
 62
     5
  2
*D30
 10
4127.131683541058
 20
-5122.3757956782283
 30
0.0
 11
4127.1316835410598
 21
-5132.5186528210852
 31
0.0
 70
   128
 13
4161.0735327955781
 23
-5112.8757956782283
 33
0.0
 14
4166.6927252753121
 24
-5122.3757956782283
 34
0.0
 50
90.0
1001
ACAD
1000
DSTYLE
1002
{
1070
   287
1070
     0
1070
    41
1040
3.0
1070
    42
1040
1.0
1070
    43
1040
1.0
1070
    44
1040
1.0
1070
   140
1040
3.0
1070
   147
1040
1.0
1070
   172
1070
     0
1070
   178
1070
     5
1070
   271
1070
     1
1070
   288
1070
     1
1070
   289
1070
     0
1070
   340
1005
20
1002
}
  0
DIMENSION
  5
18D
  8
Q
 62
     5
  2
*D42
 10
4160.0735327955781
 20
-5112.8757956782283
 30
0.0
 11
4160.0735327955781
 21
-5098.8329383733671
 31
0.0
 70
   128
 13
4154.6188719981355
 23
-5089.3586755685874
 33
0.0
 14
4156.1645931225066
 24
-5112.8757956782283
 34
0.0
 50
90.0
1001
ACAD
1000
DSTYLE
1002
{
1070
   287
1070
     0
1070
    41
1040
3.0
1070
    42
1040
1.0
1070
    43
1040
1.0
1070
    44
1040
1.0
1070
   140
1040
3.0
1070
   147
1040
1.0
1070
   172
1070
     0
1070
   178
1070
     5
1070
   271
1070
     1
1070
   288
1070
     1
1070
   289
1070
     0
1070
   340
1005
20
1002
}
  0
DIMENSION
  5
19A
  8
Q
 62
     5
  2
*D32
 10
4125.283459677652
 20
-5082.3757956782283
 30
0.0
 11
4125.2834596776529
 21
-5071.0186528210843
 31
0.0
 70
   128
 13
4142.5427252753107
 23
-5092.575795678229
 33
0.0
 14
4142.5427252753107
 24
-5082.3757956782283
 34
0.0
 50
90.0
1001
ACAD
1000
DSTYLE
1002
{
1070
   287
1070
     0
1070
    41
1040
3.0
1070
    42
1040
1.0
1070
    43
1040
1.0
1070
    44
1040
1.0
1070
   140
1040
3.0
1070
   147
1040
1.0
1070
   172
1070
     0
1070
   178
1070
     5
1070
   271
1070
     1
1070
   288
1070
     1
1070
   289
1070
     0
1070
   340
1005
20
1002
}
  0
DIMENSION
  5
1A8
  8
Q
 62
     5
  2
*D41
 10
4134.3071332967284
 20
-5106.3757956782283
 30
0.0
 11
4134.3071332967284
 21
-5099.3762565108163
 31
0.0
 70
   128
 13
4153.2927252753116
 23
-5092.575795678229
 33
0.0
 14
4153.4253982873333
 24
-5106.3757956782283
 34
0.0
 50
90.0
1001
ACAD
1000
DSTYLE
1002
{
1070
   287
1070
     0
1070
    41
1040
3.0
1070
    42
1040
1.0
1070
    43
1040
1.0
1070
    44
1040
1.0
1070
   140
1040
3.0
1070
   147
1040
1.0
1070
   172
1070
     0
1070
   178
1070
     5
1070
   271
1070
     1
1070
   288
1070
     1
1070
   289
1070
     0
1070
   340
1005
20
1002
}
  0
DIMENSION
  5
1B5
  8
Q
 62
     5
  2
*D39
 10
4142.7927252753107
 20
-5133.2793763210138
 30
0.0
 11
4154.528867075288
 21
-5133.2793763210138
 31
0.0
 70
   128
 13
4141.5427252753097
 23
-5091.5757956782272
 33
0.0
 14
4142.7927252753107
 24
-5113.8757956782292
 34
0.0
1001
ACAD
1000
DSTYLE
1002
{
1070
   287
1070
     0
1070
    41
1040
3.0
1070
    42
1040
1.0
1070
    43
1040
1.0
1070
    44
1040
1.0
1070
   140
1040
3.0
1070
   147
1040
1.0
1070
   172
1070
     0
1070
   178
1070
     5
1070
   271
1070
     1
1070
   288
1070
     1
1070
   289
1070
     0
1070
   340
1005
20
1002
}
  0
LINE
  5
1C3
  8
0
 10
4166.9927252753114
 20
-5083.0757956782272
 30
0.0
 11
4166.9927252753114
 21
-5121.6757956782276
 31
0.0
  0
LINE
  5
1C4
  8
0
  6
CENTER
 10
4166.6927252753121
 20
-5082.3757956782283
 30
0.0
 11
4166.6927252753121
 21
-5122.3757956782283
 31
0.0
  0
LINE
  5
1C6
  8
Q
 10
4166.6927252753121
 20
-5084.3967563726228
 30
0.0
 11
4166.6927252753121
 21
-5122.3757956782283
 31
0.0
  0
LINE
  5
1C7
  8
0
 10
4166.2927252753107
 20
-5095.4198268471009
 30
0.0
 11
4166.2927252753107
 21
-5112.5757956782281
 31
0.0
  0
DIMENSION
  5
1C8
  8
Q
 62
     5
  2
*D40
 10
4177.5251387829903
 20
-5122.3757956782283
 30
0.0
 11
4177.5251387829912
 21
-5132.5186528210852
 31
0.0
 70
   128
 13
4166.9927252753114
 23
-5121.6757956782276
 33
0.0
 14
4166.6927252753121
 24
-5122.3757956782283
 34
0.0
 50
90.0
1001
ACAD
1000
DSTYLE
1002
{
1070
   287
1070
     0
1070
    41
1040
3.0
1070
    42
1040
1.0
1070
    43
1040
1.0
1070
    44
1040
1.0
1070
   140
1040
3.0
1070
   147
1040
1.0
1070
   172
1070
     0
1070
   178
1070
     5
1070
   288
1070
     1
1070
   289
1070
     0
1070
   340
1005
20
1002
}
  0
LINE
  5
1D6
  8
0
 10
4156.1645931225066
 20
-5112.8757956782283
 30
0.0
 11
4165.9927252753114
 21
-5112.8757956782283
 31
0.0
  0
LINE
  5
1D7
  8
0
 10
4156.8645931225083
 20
-5113.575795678229
 30
0.0
 11
4165.9927252753114
 21
-5113.575795678229
 31
0.0
  0
LINE
  5
1D8
  8
0
 10
4159.5969325633368
 20
-5121.6757956782276
 30
0.0
 11
4156.8645931225083
 21
-5121.6757956782294
 31
0.0
  0
ARC
  5
1D9
  8
0
 10
4156.1645931225066
 20
-5112.5757956782281
 30
0.0
 40
0.3
 50
194.9999999999998
 51
270.0
  0
LINE
  5
1DA
  8
0
 10
4166.2927252753107
 20
-5113.8757956782292
 30
0.0
 11
4166.2927252753107
 21
-5121.3757956782283
 31
0.0
  0
ARC
  5
1DB
  8
0
 10
4165.9927252753114
 20
-5121.3757956782283
 30
0.0
 40
0.3
 50
270.0
 51
0.0
  0
ARC
  5
1DC
  8
0
 10
4165.9927252753114
 20
-5112.5757956782281
 30
0.0
 40
0.3
 50
270.0
 51
0.0
  0
ARC
  5
1DD
  8
0
 10
4165.9927252753114
 20
-5113.8757956782292
 30
0.0
 40
0.3
 50
359.99999999999977
 51
89.999999999999872
  0
ARC
  5
1DE
  8
0
 10
4160.7927252753107
 20
-5095.4198268471009
 30
0.0
 40
5.5
 50
0.0
 51
85.000000000000156
  0
ARC
  5
1DF
  8
0
 10
4160.7927252753107
 20
-5095.4198268471009
 30
0.0
 40
6.2000000000000002
 50
36.86989764584434
 51
85.000000000000156
  0
LINE
  5
1E0
  8
0
 10
4166.2927252753107
 20
-5091.5198268471004
 30
0.0
 11
4166.2927252753107
 21
-5083.3757956782292
 31
0.0
  0
ARC
  5
1E1
  8
0
 10
4165.9927252753114
 20
-5091.5198268471004
 30
0.0
 40
0.3
 50
216.86989764584291
 51
0.0
  0
ARC
  5
1E2
  8
0
 10
4165.9927252753114
 20
-5083.3757956782292
 30
0.0
 40
0.3
 50
0.0
 51
90.000000000000099
  0
LINE
  5
1E3
  8
Q
 10
4166.2927252753107
 20
-5084.3967563726228
 30
0.0
 11
4167.0927252753118
 21
-5084.3967563726228
 31
0.0
  0
LINE
  5
1E4
  8
0
  6
CONTINUOUS
 10
4182.3267252753139
 20
-5082.3757956782283
 30
0.0
 11
4182.3267252753139
 21
-5122.3757956782283
 31
0.0
  0
LINE
  5
1E5
  8
0
  6
CONTINUOUS
 10
4182.1767252753143
 20
-5083.0757956782272
 30
0.0
 11
4182.1767252753143
 21
-5122.3757956782283
 31
0.0
  0
LINE
  5
1E6
  8
0
  6
CONTINUOUS
 10
4182.4767252753127
 20
-5083.0757956782272
 30
0.0
 11
4182.4767252753127
 21
-5122.3757956782283
 31
0.0
  0
LINE
  5
1E7
  8
0
 10
4156.1645931225066
 20
-5113.575795678229
 30
0.0
 11
4156.1645931225066
 21
-5121.6757956782276
 31
0.0
  0
LINE
  5
1E8
  8
0
 10
4156.8645931225083
 20
-5113.575795678229
 30
0.0
 11
4156.8645931225083
 21
-5121.6757956782276
 31
0.0
  0
LINE
  5
1E9
  8
0
 10
4156.8645931225083
 20
-5121.6757956782276
 30
0.0
 11
4165.9927252753114
 21
-5121.6757956782276
 31
0.0
  0
LINE
  5
1EA
  8
0
  6
CONTINUOUS
 10
4198.0067252753133
 20
-5083.0757956782272
 30
0.0
 11
4198.0067252753133
 21
-5122.3757956782283
 31
0.0
  0
LINE
  5
1EB
  8
0
  6
CONTINUOUS
 10
4197.7067252753141
 20
-5083.0757956782272
 30
0.0
 11
4197.7067252753141
 21
-5122.3757956782283
 31
0.0
  0
LINE
  5
1EC
  8
0
  6
CONTINUOUS
 10
4197.8567252753137
 20
-5082.3757956782283
 30
0.0
 11
4197.8567252753137
 21
-5122.3757956782283
 31
0.0
  0
DIMENSION
  5
1ED
  8
Q
 62
     5
  2
*D31
 10
4118.6505190418811
 20
-5122.3757956782283
 30
0.0
 11
4116.1505190418811
 21
-5102.3757956782274
 31
0.0
 70
     0
 13
4142.5427252753107
 23
-5082.3757956782283
 33
0.0
 14
4143.7927252753116
 24
-5122.3757956782283
 34
0.0
 50
90.0
1001
ACAD
1000
DSTYLE
1002
{
1070
   287
1070
     0
1070
    41
1040
3.0
1070
    42
1040
1.0
1070
    43
1040
1.0
1070
    44
1040
1.0
1070
   140
1040
3.0
1070
   147
1040
1.0
1070
   172
1070
     0
1070
   178
1070
     5
1070
   288
1070
     1
1070
   289
1070
     0
1070
   340
1005
20
1002
}
  0
LINE
  5
1FA
  8
0
 10
4142.7927252753107
 20
-5113.8757956782292
 30
0.0
 11
4142.7927252753107
 21
-5121.3757956782283
 31
0.0
  0
LINE
  5
1FB
  8
0
 10
4143.4927252753123
 20
-5113.8757956782292
 30
0.0
 11
4143.4927252753123
 21
-5121.3757956782283
 31
0.0
  0
ARC
  5
1FC
  8
0
 10
4143.7927252753116
 20
-5121.3757956782283
 30
0.0
 40
1.0
 50
180.0
 51
269.99999999999989
  0
ARC
  5
1FD
  8
0
 10
4143.7927252753116
 20
-5121.3757956782283
 30
0.0
 40
0.3
 50
180.0
 51
269.99999999999989
  0
ARC
  5
1FE
  8
0
 10
4144.2927252753107
 20
-5113.8757956782292
 30
0.0
 40
1.5
 50
14.477512185927621
 51
180.0
  0
ARC
  5
1FF
  8
0
 10
4144.2927252753107
 20
-5113.8757956782292
 30
0.0
 40
0.8
 50
9.5940682268618627
 51
180.0
  0
ARC
  5
200
  8
0
 10
4148.7427252753123
 20
-5112.8757956782283
 30
0.0
 40
1.7
 50
270.0
 51
359.99999999999972
  0
ARC
  5
201
  8
0
 10
4148.7427252753123
 20
-5112.8757956782283
 30
0.0
 40
1.0
 50
270.0
 51
359.99999999999972
  0
ARC
  5
202
  8
0
 10
4146.2292169484163
 20
-5113.3757956782283
 30
0.0
 40
0.5
 50
194.47751218592839
 51
270.0
  0
ARC
  5
203
  8
0
 10
4146.0675492102409
 20
-5113.575795678229
 30
0.0
 40
1.0
 50
189.5940682268614
 51
270.0
  0
LINE
  5
204
  8
0
 10
4148.7427252753123
 20
-5113.8757956782292
 30
0.0
 11
4146.2292169484163
 21
-5113.8757956782292
 31
0.0
  0
LINE
  5
205
  8
0
 10
4149.7427252753123
 20
-5107.3757956782292
 30
0.0
 11
4149.7427252753123
 21
-5112.8757956782283
 31
0.0
  0
LINE
  5
206
  8
0
 10
4150.4427252753121
 20
-5107.3757956782292
 30
0.0
 11
4150.4427252753121
 21
-5112.8757956782283
 31
0.0
  0
LINE
  5
207
  8
0
 10
4148.7427252753123
 20
-5114.5757956782281
 30
0.0
 11
4146.0675492102409
 21
-5114.5757956782281
 31
0.0
  0
LINE
  5
208
  8
0
 10
4150.7427252753123
 20
-5106.3757956782283
 30
0.0
 11
4153.4253982873333
 21
-5106.3757956782283
 31
0.0
  0
LINE
  5
209
  8
0
 10
4153.7151760352199
 20
-5107.2981499646976
 30
0.0
 11
4155.1986672962184
 21
-5112.8346147233306
 31
0.0
  0
LINE
  5
20A
  8
0
 10
4150.7427252753123
 20
-5107.0757956782281
 30
0.0
 11
4153.4253982873333
 21
-5107.0757956782281
 31
0.0
  0
ARC
  5
20B
  8
0
 10
4153.4253982873333
 20
-5107.3757956782292
 30
0.0
 40
0.3
 50
15.000000000000149
 51
90.000000000000398
  0
ARC
  5
20C
  8
0
 10
4150.7427252753123
 20
-5107.3757956782292
 30
0.0
 40
0.3
 50
90.000000000000426
 51
179.99999999999989
  0
ARC
  5
20D
  8
0
 10
4153.4253982873333
 20
-5107.3757956782292
 30
0.0
 40
1.0
 50
14.999999999999821
 51
90.000000000000298
  0
ARC
  5
20E
  8
0
 10
4150.7427252753123
 20
-5107.3757956782292
 30
0.0
 40
1.0
 50
90.000000000000355
 51
180.0
  0
LINE
  5
20F
  8
0
 10
4142.5427252753107
 20
-5083.075795678229
 30
0.0
 11
4153.5927252753118
 21
-5083.075795678229
 31
0.0
  0
LINE
  5
210
  8
0
 10
4141.5427252753116
 20
-5091.5757956782272
 30
0.0
 11
4141.5427252753116
 21
-5083.3757956782292
 31
0.0
  0
LINE
  5
211
  8
0
 10
4142.2427252753123
 20
-5091.5757956782272
 30
0.0
 11
4142.2427252753123
 21
-5083.3757956782292
 31
0.0
  0
LINE
  5
212
  8
0
 10
4142.5427252753107
 20
-5092.575795678229
 30
0.0
 11
4153.2927252753116
 21
-5092.575795678229
 31
0.0
  0
LINE
  5
213
  8
0
 10
4142.5427252753107
 20
-5091.8757956782292
 30
0.0
 11
4153.2927252753116
 21
-5091.8757956782292
 31
0.0
  0
ARC
  5
214
  8
0
 10
4142.5427252753107
 20
-5091.5757956782272
 30
0.0
 40
1.0
 50
179.9999999999998
 51
270.00000000000011
  0
ARC
  5
215
  8
0
 10
4142.5427252753107
 20
-5091.5757956782272
 30
0.0
 40
0.3
 50
180.0
 51
269.99999999999972
  0
LINE
  5
216
  8
0
 10
4154.2927252753107
 20
-5089.6575339780147
 30
0.0
 11
4154.2927252753107
 21
-5091.5757956782272
 31
0.0
  0
LINE
  5
217
  8
0
 10
4153.5927252753118
 20
-5089.6575339780147
 30
0.0
 11
4153.5927252753118
 21
-5091.5757956782272
 31
0.0
  0
ARC
  5
218
  8
0
 10
4153.2927252753116
 20
-5091.5757956782272
 30
0.0
 40
0.3
 50
269.99999999999972
 51
0.0000000000004962
  0
ARC
  5
219
  8
0
 10
4154.5927252753108
 20
-5089.6575339780147
 30
0.0
 40
1.0
 50
85.000000000000099
 51
107.4576031237365
  0
ARC
  5
21A
  8
0
 10
4153.2927252753116
 20
-5091.5757956782272
 30
0.0
 40
1.0
 50
270.0
 51
0.0000000000004962
  0
ARC
  5
21B
  8
0
 10
4154.5927252753108
 20
-5089.6575339780147
 30
0.0
 40
0.3
 50
84.999999999999986
 51
180.00000000000071
  0
ARC
  5
21C
  8
0
 10
4142.5427252753107
 20
-5083.3757956782292
 30
0.0
 40
1.0
 50
90.0
 51
179.9999999999996
  0
ARC
  5
21D
  8
0
 10
4142.5427252753107
 20
-5083.3757956782292
 30
0.0
 40
0.3
 50
90.000000000000142
 51
180.0
  0
LINE
  5
21E
  8
0
 10
4153.5927252753118
 20
-5089.6575339780147
 30
0.0
 11
4153.5927252753118
 21
-5083.075795678229
 31
0.0
  0
LINE
  5
21F
  8
0
 10
4154.2927252753107
 20
-5088.703594776598
 30
0.0
 11
4154.2927252753107
 21
-5083.075795678229
 31
0.0
  0
LINE
  5
220
  8
0
 10
4148.7927252753116
 20
-5122.3757956782283
 30
0.0
 11
4166.6927252753121
 21
-5122.3757956782283
 31
0.0
  0
LINE
  5
221
  8
0
 10
4143.7927252753116
 20
-5121.6757956782276
 30
0.0
 11
4156.1645931225066
 21
-5121.6757956782276
 31
0.0
  0
LINE
  5
222
  8
0
 10
4159.5969325633368
 20
-5122.3757956782283
 30
0.0
 11
4143.7927252753116
 21
-5122.3757956782283
 31
0.0
  0
LINE
  5
223
  8
0
 10
4154.3913241136224
 20
-5107.116976633125
 30
0.0
 11
4155.874815374621
 21
-5112.6534413917589
 31
0.0
  0
ARC
  5
224
  8
0
 10
4156.1645931225066
 20
-5112.5757956782281
 30
0.0
 40
1.0
 50
195.00000000000011
 51
269.99999999999977
  0
LINE
  5
225
  8
0
 10
4142.5427252753107
 20
-5082.3757956782283
 30
0.0
 11
4166.6927252753121
 21
-5082.3757956782283
 31
0.0
  0
LINE
  5
226
  8
0
 10
4154.6188719981355
 20
-5089.3586755685874
 30
0.0
 11
4161.272081860423
 21
-5089.9407560075961
 31
0.0
  0
LINE
  5
227
  8
0
 10
4154.6798810180599
 20
-5088.6613392799227
 30
0.0
 11
4161.3330908803473
 21
-5089.2434197189332
 31
0.0
  0
LINE
  5
228
  8
0
 10
4154.2927252753097
 20
-5083.075795678229
 30
0.0
 11
4165.9927252753114
 21
-5083.075795678229
 31
0.0
  0
LINE
  5
229
  8
0
 10
4156.1645931225066
 20
-5121.6757956782294
 30
0.0
 11
4149.7427252753123
 21
-5121.6757956782276
 31
0.0
  0
DIMENSION
  5
22A
  8
Q
 62
     5
  2
*D35
 10
4182.3267252753139
 20
-5071.326454867818
 30
0.0
 11
4174.2551472953073
 21
-5071.326454867818
 31
0.0
 70
   128
 13
4166.6927252753121
 23
-5082.3757956782283
 33
0.0
 14
4182.3267252753139
 24
-5082.3757956782283
 34
0.0
1001
ACAD
1000
DSTYLE
1002
{
1070
   287
1070
     0
1070
    41
1040
3.0
1070
    42
1040
1.0
1070
    43
1040
1.0
1070
    44
1040
1.0
1070
   140
1040
3.0
1070
   147
1040
1.0
1070
   172
1070
     0
1070
   178
1070
     5
1070
   288
1070
     1
1070
   289
1070
     0
1070
   340
1005
20
1002
}
  0
LINE
  5
237
  8
0
  6
CONTINUOUS
 10
4291.1867252753118
 20
-5083.0757956782272
 30
0.0
 11
4291.1867252753118
 21
-5122.3757956782283
 31
0.0
  0
LINE
  5
238
  8
0
  6
CONTINUOUS
 10
4290.8867252753134
 20
-5083.0757956782272
 30
0.0
 11
4290.8867252753134
 21
-5122.3757956782283
 31
0.0
  0
LINE
  5
239
  8
0
  6
CONTINUOUS
 10
4291.0367252753122
 20
-5082.3757956782283
 30
0.0
 11
4291.0367252753122
 21
-5122.3757956782283
 31
0.0
  0
LINE
  5
23A
  8
0
  6
CONTINUOUS
 10
4229.0667252753128
 20
-5083.0757956782272
 30
0.0
 11
4229.0667252753128
 21
-5122.3757956782283
 31
0.0
  0
LINE
  5
23B
  8
0
  6
CONTINUOUS
 10
4228.7667252753126
 20
-5083.0757956782272
 30
0.0
 11
4228.7667252753126
 21
-5122.3757956782283
 31
0.0
  0
LINE
  5
23C
  8
0
  6
CONTINUOUS
 10
4228.9167252753132
 20
-5082.3757956782283
 30
0.0
 11
4228.9167252753132
 21
-5122.3757956782283
 31
0.0
  0
LINE
  5
23D
  8
0
  6
CONTINUOUS
 10
4244.446725275312
 20
-5082.3757956782283
 30
0.0
 11
4244.446725275312
 21
-5122.3757956782283
 31
0.0
  0
LINE
  5
23E
  8
0
  6
CONTINUOUS
 10
4244.2967252753133
 20
-5083.0757956782272
 30
0.0
 11
4244.2967252753133
 21
-5122.3757956782283
 31
0.0
  0
LINE
  5
23F
  8
0
  6
CONTINUOUS
 10
4244.5967252753126
 20
-5083.0757956782272
 30
0.0
 11
4244.5967252753126
 21
-5122.3757956782283
 31
0.0
  0
LINE
  5
240
  8
0
  6
CONTINUOUS
 10
4260.1267252753123
 20
-5083.0757956782272
 30
0.0
 11
4260.1267252753123
 21
-5122.3757956782283
 31
0.0
  0
LINE
  5
241
  8
0
  6
CONTINUOUS
 10
4259.826725275313
 20
-5083.0757956782272
 30
0.0
 11
4259.826725275313
 21
-5122.3757956782283
 31
0.0
  0
LINE
  5
242
  8
0
  6
CONTINUOUS
 10
4259.9767252753118
 20
-5082.3757956782283
 30
0.0
 11
4259.9767252753118
 21
-5122.3757956782283
 31
0.0
  0
LINE
  5
243
  8
0
  6
CONTINUOUS
 10
4275.6567252753121
 20
-5083.0757956782272
 30
0.0
 11
4275.6567252753121
 21
-5122.3757956782283
 31
0.0
  0
LINE
  5
244
  8
0
  6
CONTINUOUS
 10
4275.3567252753128
 20
-5083.0757956782272
 30
0.0
 11
4275.3567252753128
 21
-5122.3757956782283
 31
0.0
  0
LINE
  5
245
  8
0
  6
CONTINUOUS
 10
4275.5067252753124
 20
-5082.3757956782283
 30
0.0
 11
4275.5067252753124
 21
-5122.3757956782283
 31
0.0
  0
LINE
  5
246
  8
0
  6
CONTINUOUS
 10
4213.3867252753134
 20
-5082.3757956782283
 30
0.0
 11
4213.3867252753134
 21
-5122.3757956782283
 31
0.0
  0
LINE
  5
247
  8
0
  6
CONTINUOUS
 10
4213.2367252753138
 20
-5083.0757956782272
 30
0.0
 11
4213.2367252753138
 21
-5122.3757956782283
 31
0.0
  0
LINE
  5
248
  8
0
  6
CONTINUOUS
 10
4213.5367252753131
 20
-5083.0757956782272
 30
0.0
 11
4213.5367252753131
 21
-5122.3757956782283
 31
0.0
  0
INSERT
  5
249
  8
Q
  2
*U86
 10
0.0
 20
0.0
 30
0.0
  0
INSERT
  5
24A
  8
Q
  2
*U87
 10
0.0
 20
0.0
 30
0.0
  0
INSERT
  5
24B
  8
Q
  2
*U88
 10
0.0
 20
0.0
 30
0.0
  0
LINE
  5
24C
  8
0
 10
4391.5427252753116
 20
-5091.5757956782272
 30
0.0
 11
4391.5427252753116
 21
-5083.3757956782292
 31
0.0
  0
LINE
  5
24D
  8
0
  6
CONTINUOUS
 10
4353.3067252753099
 20
-5083.0757956782272
 30
0.0
 11
4353.3067252753099
 21
-5122.3757956782283
 31
0.0
  0
LINE
  5
24E
  8
0
  6
CONTINUOUS
 10
4353.0067252753106
 20
-5083.0757956782272
 30
0.0
 11
4353.0067252753106
 21
-5122.3757956782283
 31
0.0
  0
LINE
  5
24F
  8
0
  6
CONTINUOUS
 10
4353.1567252753111
 20
-5082.3757956782283
 30
0.0
 11
4353.1567252753111
 21
-5122.3757956782283
 31
0.0
  0
LINE
  5
250
  8
0
  6
CONTINUOUS
 10
4368.8367252753096
 20
-5083.0757956782272
 30
0.0
 11
4368.8367252753096
 21
-5122.3757956782283
 31
0.0
  0
LINE
  5
251
  8
0
  6
CONTINUOUS
 10
4368.5367252753113
 20
-5083.0757956782272
 30
0.0
 11
4368.5367252753113
 21
-5122.3757956782283
 31
0.0
  0
LINE
  5
252
  8
0
  6
CONTINUOUS
 10
4368.6867252753109
 20
-5082.3757956782283
 30
0.0
 11
4368.6867252753109
 21
-5122.3757956782283
 31
0.0
  0
LINE
  5
253
  8
0
  6
CONTINUOUS
 10
4384.3667252753103
 20
-5083.0757956782272
 30
0.0
 11
4384.3667252753103
 21
-5122.3757956782283
 31
0.0
  0
LINE
  5
254
  8
0
  6
CONTINUOUS
 10
4384.066725275311
 20
-5083.0757956782272
 30
0.0
 11
4384.066725275311
 21
-5122.3757956782283
 31
0.0
  0
LINE
  5
255
  8
0
  6
CONTINUOUS
 10
4384.2167252753106
 20
-5082.3757956782283
 30
0.0
 11
4384.2167252753106
 21
-5122.3757956782283
 31
0.0
  0
LINE
  5
256
  8
0
  6
CONTINUOUS
 10
4306.7167252753106
 20
-5083.0757956782272
 30
0.0
 11
4306.7167252753106
 21
-5122.3757956782283
 31
0.0
  0
LINE
  5
257
  8
0
  6
CONTINUOUS
 10
4306.4167252753123
 20
-5083.0757956782272
 30
0.0
 11
4306.4167252753123
 21
-5122.3757956782283
 31
0.0
  0
LINE
  5
258
  8
0
  6
CONTINUOUS
 10
4306.5667252753119
 20
-5082.3757956782283
 30
0.0
 11
4306.5667252753119
 21
-5122.3757956782283
 31
0.0
  0
LINE
  5
259
  8
0
  6
CONTINUOUS
 10
4322.2467252753113
 20
-5083.0757956782272
 30
0.0
 11
4322.2467252753113
 21
-5122.3757956782283
 31
0.0
  0
LINE
  5
25A
  8
0
  6
CONTINUOUS
 10
4321.946725275312
 20
-5083.0757956782272
 30
0.0
 11
4321.946725275312
 21
-5122.3757956782283
 31
0.0
  0
LINE
  5
25B
  8
0
  6
CONTINUOUS
 10
4322.0967252753107
 20
-5082.3757956782283
 30
0.0
 11
4322.0967252753107
 21
-5122.3757956782283
 31
0.0
  0
LINE
  5
25C
  8
0
  6
CONTINUOUS
 10
4337.7767252753101
 20
-5083.0757956782272
 30
0.0
 11
4337.7767252753101
 21
-5122.3757956782283
 31
0.0
  0
LINE
  5
25D
  8
0
  6
CONTINUOUS
 10
4337.4767252753109
 20
-5083.0757956782272
 30
0.0
 11
4337.4767252753109
 21
-5122.3757956782283
 31
0.0
  0
LINE
  5
25E
  8
0
  6
CONTINUOUS
 10
4337.6267252753123
 20
-5082.3757956782283
 30
0.0
 11
4337.6267252753123
 21
-5122.3757956782283
 31
0.0
  0
INSERT
  5
25F
  8
Q
  2
*U89
 10
0.0
 20
0.0
 30
0.0
  0
INSERT
  5
260
  8
Q
  2
*U90
 10
0.0
 20
0.0
 30
0.0
1001
ACAD
1000
DSTYLE
1002
{
1070
   288
1070
     1
1070
   140
1040
3.0
1070
   340
1005
20
1070
   172
1070
     0
1070
   147
1040
1.0
1070
   287
1070
     0
1070
    42
1040
1.0
1070
    44
1040
1.0
1070
    43
1040
1.0
1070
   271
1070
     1
1070
   178
1070
   256
1070
    41
1040
3.0
1002
}
  0
LINE
  5
261
  8
0
  6
CONTINUOUS
 10
4493.0767252753076
 20
-5083.0757956782272
 30
0.0
 11
4493.0767252753076
 21
-5122.3757956782283
 31
0.0
  0
LINE
  5
262
  8
0
  6
CONTINUOUS
 10
4492.7767252753092
 20
-5083.0757956782272
 30
0.0
 11
4492.7767252753092
 21
-5122.3757956782283
 31
0.0
  0
LINE
  5
263
  8
0
  6
CONTINUOUS
 10
4492.9267252753089
 20
-5082.3757956782283
 30
0.0
 11
4492.9267252753089
 21
-5122.3757956782283
 31
0.0
  0
LINE
  5
264
  8
0
  6
CONTINUOUS
 10
4415.4267252753098
 20
-5083.0757956782272
 30
0.0
 11
4415.4267252753098
 21
-5122.3757956782283
 31
0.0
  0
LINE
  5
265
  8
0
  6
CONTINUOUS
 10
4415.1267252753096
 20
-5083.0757956782272
 30
0.0
 11
4415.1267252753096
 21
-5122.3757956782283
 31
0.0
  0
LINE
  5
266
  8
0
  6
CONTINUOUS
 10
4415.2767252753101
 20
-5082.3757956782283
 30
0.0
 11
4415.2767252753101
 21
-5122.3757956782283
 31
0.0
  0
LINE
  5
267
  8
0
  6
CONTINUOUS
 10
4430.9567252753104
 20
-5083.0757956782272
 30
0.0
 11
4430.9567252753104
 21
-5122.3757956782283
 31
0.0
  0
LINE
  5
268
  8
0
  6
CONTINUOUS
 10
4430.6567252753102
 20
-5083.0757956782272
 30
0.0
 11
4430.6567252753102
 21
-5122.3757956782283
 31
0.0
  0
LINE
  5
269
  8
0
  6
CONTINUOUS
 10
4430.806725275309
 20
-5082.3757956782283
 30
0.0
 11
4430.806725275309
 21
-5122.3757956782283
 31
0.0
  0
LINE
  5
26A
  8
0
  6
CONTINUOUS
 10
4446.4867252753093
 20
-5083.0757956782272
 30
0.0
 11
4446.4867252753093
 21
-5122.3757956782283
 31
0.0
  0
LINE
  5
26B
  8
0
  6
CONTINUOUS
 10
4446.18672527531
 20
-5083.0757956782272
 30
0.0
 11
4446.18672527531
 21
-5122.3757956782283
 31
0.0
  0
LINE
  5
26C
  8
0
  6
CONTINUOUS
 10
4446.3367252753087
 20
-5082.3757956782283
 30
0.0
 11
4446.3367252753087
 21
-5122.3757956782283
 31
0.0
  0
LINE
  5
26D
  8
0
  6
CONTINUOUS
 10
4462.016725275309
 20
-5083.0757956782272
 30
0.0
 11
4462.016725275309
 21
-5122.3757956782283
 31
0.0
  0
LINE
  5
26E
  8
0
  6
CONTINUOUS
 10
4461.7167252753097
 20
-5083.0757956782272
 30
0.0
 11
4461.7167252753097
 21
-5122.3757956782283
 31
0.0
  0
LINE
  5
26F
  8
0
  6
CONTINUOUS
 10
4461.8667252753094
 20
-5082.3757956782283
 30
0.0
 11
4461.8667252753094
 21
-5122.3757956782283
 31
0.0
  0
LINE
  5
270
  8
0
  6
CONTINUOUS
 10
4477.5467252753087
 20
-5083.0757956782272
 30
0.0
 11
4477.5467252753087
 21
-5122.3757956782283
 31
0.0
  0
LINE
  5
271
  8
0
  6
CONTINUOUS
 10
4477.2467252753104
 20
-5083.0757956782272
 30
0.0
 11
4477.2467252753104
 21
-5122.3757956782283
 31
0.0
  0
LINE
  5
272
  8
0
  6
CONTINUOUS
 10
4477.3967252753082
 20
-5082.3757956782283
 30
0.0
 11
4477.3967252753082
 21
-5122.3757956782283
 31
0.0
  0
LINE
  5
273
  8
0
  6
CONTINUOUS
 10
4399.89672527531
 20
-5083.0757956782272
 30
0.0
 11
4399.89672527531
 21
-5122.3757956782283
 31
0.0
  0
LINE
  5
274
  8
0
  6
CONTINUOUS
 10
4399.5967252753107
 20
-5083.0757956782272
 30
0.0
 11
4399.5967252753107
 21
-5122.3757956782283
 31
0.0
  0
LINE
  5
275
  8
0
  6
CONTINUOUS
 10
4399.7467252753104
 20
-5082.3757956782283
 30
0.0
 11
4399.7467252753104
 21
-5122.3757956782283
 31
0.0
  0
DIMENSION
  5
276
  8
Q
 62
     5
  2
*D53
 10
4687.9187323679189
 20
-5096.8757956782283
 30
0.0
 11
4687.9187323679189
 21
-5089.5744048660654
 31
0.0
 70
   128
 13
4640.5427252753107
 23
-5082.3757956782283
 33
0.0
 14
4641.8427252753118
 24
-5096.8757956782283
 34
0.0
 50
90.0
1001
ACAD
1000
DSTYLE
1002
{
1070
   287
1070
     0
1070
    41
1040
3.0
1070
    42
1040
1.0
1070
    43
1040
1.0
1070
    44
1040
1.0
1070
   140
1040
3.0
1070
   147
1040
1.0
1070
   172
1070
     0
1070
   178
1070
     5
1070
   271
1070
     1
1070
   288
1070
     1
1070
   289
1070
     0
1070
   340
1005
20
1002
}
  0
INSERT
  5
283
  8
Q
  2
*U92
 10
0.0
 20
0.0
 30
0.0
  0
INSERT
  5
284
  8
Q
  2
*U93
 10
0.0
 20
0.0
 30
0.0
  0
INSERT
  5
285
  8
Q
  2
*U94
 10
0.0
 20
0.0
 30
0.0
  0
INSERT
  5
286
  8
Q
  2
*U95
 10
0.0
 20
0.0
 30
0.0
  0
LINE
  5
287
  8
0
  6
CONTINUOUS
 10
4555.1967252753066
 20
-5083.0757956782272
 30
0.0
 11
4555.1967252753066
 21
-5122.3757956782283
 31
0.0
  0
LINE
  5
288
  8
0
  6
CONTINUOUS
 10
4554.8967252753082
 20
-5083.0757956782272
 30
0.0
 11
4554.8967252753082
 21
-5122.3757956782283
 31
0.0
  0
LINE
  5
289
  8
0
  6
CONTINUOUS
 10
4555.0467252753078
 20
-5082.3757956782283
 30
0.0
 11
4555.0467252753078
 21
-5122.3757956782283
 31
0.0
  0
LINE
  5
28A
  8
0
  6
CONTINUOUS
 10
4570.7267252753063
 20
-5083.0757956782272
 30
0.0
 11
4570.7267252753063
 21
-5122.3757956782283
 31
0.0
  0
LINE
  5
28B
  8
0
  6
CONTINUOUS
 10
4570.426725275307
 20
-5083.0757956782272
 30
0.0
 11
4570.426725275307
 21
-5122.3757956782283
 31
0.0
  0
LINE
  5
28C
  8
0
  6
CONTINUOUS
 10
4570.5767252753076
 20
-5082.3757956782283
 30
0.0
 11
4570.5767252753076
 21
-5122.3757956782283
 31
0.0
  0
LINE
  5
28D
  8
0
  6
CONTINUOUS
 10
4586.256725275307
 20
-5083.0757956782272
 30
0.0
 11
4586.256725275307
 21
-5122.3757956782283
 31
0.0
  0
LINE
  5
28E
  8
0
  6
CONTINUOUS
 10
4585.9567252753077
 20
-5083.0757956782272
 30
0.0
 11
4585.9567252753077
 21
-5122.3757956782283
 31
0.0
  0
LINE
  5
28F
  8
0
  6
CONTINUOUS
 10
4586.1067252753073
 20
-5082.3757956782283
 30
0.0
 11
4586.1067252753073
 21
-5122.3757956782283
 31
0.0
  0
LINE
  5
290
  8
0
  6
CONTINUOUS
 10
4508.6067252753082
 20
-5083.0757956782272
 30
0.0
 11
4508.6067252753082
 21
-5122.3757956782283
 31
0.0
  0
LINE
  5
291
  8
0
  6
CONTINUOUS
 10
4508.306725275309
 20
-5083.0757956782272
 30
0.0
 11
4508.306725275309
 21
-5122.3757956782283
 31
0.0
  0
LINE
  5
292
  8
0
  6
CONTINUOUS
 10
4508.4567252753077
 20
-5082.3757956782283
 30
0.0
 11
4508.4567252753077
 21
-5122.3757956782283
 31
0.0
  0
LINE
  5
293
  8
0
  6
CONTINUOUS
 10
4524.1367252753071
 20
-5083.0757956782272
 30
0.0
 11
4524.1367252753071
 21
-5122.3757956782283
 31
0.0
  0
LINE
  5
294
  8
0
  6
CONTINUOUS
 10
4523.8367252753078
 20
-5083.0757956782272
 30
0.0
 11
4523.8367252753078
 21
-5122.3757956782283
 31
0.0
  0
LINE
  5
295
  8
0
  6
CONTINUOUS
 10
4523.9867252753083
 20
-5082.3757956782283
 30
0.0
 11
4523.9867252753083
 21
-5122.3757956782283
 31
0.0
  0
LINE
  5
296
  8
0
  6
CONTINUOUS
 10
4539.6667252753068
 20
-5083.0757956782272
 30
0.0
 11
4539.6667252753068
 21
-5122.3757956782283
 31
0.0
  0
LINE
  5
297
  8
0
  6
CONTINUOUS
 10
4539.3667252753085
 20
-5083.0757956782272
 30
0.0
 11
4539.3667252753085
 21
-5122.3757956782283
 31
0.0
  0
LINE
  5
298
  8
0
  6
CONTINUOUS
 10
4539.5167252753081
 20
-5082.3757956782283
 30
0.0
 11
4539.5167252753081
 21
-5122.3757956782283
 31
0.0
  0
DIMENSION
  5
299
  8
Q
 62
     5
  2
*D49
 10
4648.9721322563582
 20
-5105.8757956782292
 30
0.0
 11
4648.9721322563591
 21
-5109.2725707105747
 31
0.0
 70
   128
 13
4639.2927252753116
 23
-5113.8757956782292
 33
0.0
 14
4635.6427252753119
 24
-5105.8757956782292
 34
0.0
 50
90.0
1001
ACAD
1000
DSTYLE
1002
{
1070
   287
1070
     0
1070
    41
1040
3.0
1070
    42
1040
1.0
1070
    43
1040
1.0
1070
    44
1040
1.0
1070
   140
1040
3.0
1070
   147
1040
1.0
1070
   172
1070
     0
1070
   178
1070
     5
1070
   271
1070
     1
1070
   288
1070
     1
1070
   289
1070
     0
1070
   340
1005
20
1002
}
  0
DIMENSION
  5
2A6
  8
Q
 62
     5
  2
*D48
 10
4651.6635950867867
 20
-5122.3757956782283
 30
0.0
 11
4651.6635950867876
 21
-5118.1257956782283
 31
0.0
 70
   128
 13
4639.2927252753116
 23
-5113.8757956782292
 33
0.0
 14
4639.2927252753116
 24
-5122.3757956782283
 34
0.0
 50
90.0
1001
ACAD
1000
DSTYLE
1002
{
1070
   287
1070
     0
1070
    41
1040
3.0
1070
    42
1040
1.0
1070
    43
1040
1.0
1070
    44
1040
1.0
1070
   140
1040
3.0
1070
   147
1040
1.0
1070
   172
1070
     0
1070
   178
1070
     5
1070
   271
1070
     1
1070
   288
1070
     1
1070
   289
1070
     0
1070
   340
1005
20
1002
}
  0
DIMENSION
  5
2B3
  8
Q
 62
     5
  2
*D45
 10
4640.2927252753107
 20
-5132.4630653025624
 30
0.0
 11
4623.3427252753108
 21
-5132.4630653025624
 31
0.0
 70
   128
 13
4633.3427252753108
 23
-5113.575795678229
 33
0.0
 14
4640.2927252753107
 24
-5114.8757956782283
 34
0.0
1001
ACAD
1000
DSTYLE
1002
{
1070
   287
1070
     0
1070
    41
1040
3.0
1070
    42
1040
1.0
1070
    43
1040
1.0
1070
    44
1040
1.0
1070
   140
1040
3.0
1070
   147
1040
1.0
1070
   172
1070
     0
1070
   178
1070
     5
1070
   271
1070
     1
1070
   288
1070
     1
1070
   289
1070
     0
1070
   340
1005
20
1002
}
  0
DIMENSION
  5
2C1
  8
Q
 62
     5
  2
*D47
 10
4673.659333330068
 20
-5105.8757956782292
 30
0.0
 11
4673.6593333300689
 21
-5114.5600031051536
 31
0.0
 70
   128
 13
4639.2927252753116
 23
-5122.3757956782283
 33
0.0
 14
4634.6427252753119
 24
-5105.8757956782292
 34
0.0
 50
90.0
1001
ACAD
1000
DSTYLE
1002
{
1070
   287
1070
     0
1070
    41
1040
3.0
1070
    42
1040
1.0
1070
    43
1040
1.0
1070
    44
1040
1.0
1070
   140
1040
3.0
1070
   147
1040
1.0
1070
   172
1070
     0
1070
   178
1070
     5
1070
   271
1070
     1
1070
   288
1070
     1
1070
   289
1070
     0
1070
   340
1005
20
1002
}
  0
DIMENSION
  5
2CE
  8
Q
 62
     5
  2
*D50
 10
4673.5665238621268
 20
-5105.8757956782292
 30
0.0
 11
4673.5665238621277
 21
-5101.8516151624726
 31
0.0
 70
   128
 13
4642.8427252753108
 23
-5096.8757956782283
 33
0.0
 14
4633.642725275311
 24
-5105.8757956782292
 34
0.0
 50
90.0
1001
ACAD
1000
DSTYLE
1002
{
1070
   287
1070
     0
1070
    41
1040
3.0
1070
    42
1040
1.0
1070
    43
1040
1.0
1070
    44
1040
1.0
1070
   140
1040
3.0
1070
   147
1040
1.0
1070
   172
1070
     0
1070
   178
1070
     5
1070
   271
1070
     1
1070
   288
1070
     1
1070
   289
1070
     0
1070
   340
1005
20
1002
}
  0
DIMENSION
  5
2DB
  8
Q
 62
     5
  2
*D55
 10
4648.1677252753107
 20
-5057.7962324230548
 30
0.0
 11
4655.7060928144556
 21
-5057.7962324230548
 31
0.0
 70
   128
 13
4665.7927252753116
 23
-5095.4198268471009
 33
0.0
 14
4648.1677252753107
 24
-5093.5757956782281
 34
0.0
1001
ACAD
1000
DSTYLE
1002
{
1070
   287
1070
     0
1070
    41
1040
3.0
1070
    42
1040
1.0
1070
    43
1040
1.0
1070
    44
1040
1.0
1070
   140
1040
3.0
1070
   147
1040
1.0
1070
   172
1070
     0
1070
   178
1070
     5
1070
   271
1070
     1
1070
   288
1070
     1
1070
   289
1070
     0
1070
   340
1005
20
1002
}
  0
DIMENSION
  5
2E8
  8
Q
 62
     5
  2
*D54
 10
4654.7927252753116
 20
-5065.5084782501399
 30
0.0
 11
4659.9360350263287
 21
-5065.5084782501399
 31
0.0
 70
   128
 13
4665.7927252753116
 23
-5101.0890538657732
 33
0.0
 14
4654.7927252753116
 24
-5090.9671041792981
 34
0.0
1001
ACAD
1000
DSTYLE
1002
{
1070
   287
1070
     0
1070
    41
1040
3.0
1070
    42
1040
1.0
1070
    43
1040
1.0
1070
    44
1040
1.0
1070
   140
1040
3.0
1070
   147
1040
1.0
1070
   172
1070
     0
1070
   178
1070
     5
1070
   271
1070
     1
1070
   288
1070
     1
1070
   289
1070
     0
1070
   340
1005
20
1002
}
  0
DIMENSION
  5
2F5
  8
Q
 62
     5
  2
*D51
 10
4681.6900260602179
 20
-5109.2017101162646
 30
0.0
 11
4681.6900260602188
 21
-5102.1184170060787
 31
0.0
 70
   128
 13
4655.7927252753107
 23
-5089.9671041792981
 33
0.0
 14
4655.7172537548431
 24
-5109.2017101162646
 34
0.0
 50
90.0
1001
ACAD
1000
DSTYLE
1002
{
1070
   287
1070
     0
1070
    41
1040
3.0
1070
    42
1040
1.0
1070
    43
1040
1.0
1070
    44
1040
1.0
1070
   140
1040
3.0
1070
   147
1040
1.0
1070
   172
1070
     0
1070
   178
1070
     5
1070
   271
1070
     1
1070
   288
1070
     1
1070
   289
1070
     0
1070
   340
1005
20
1002
}
  0
DIMENSION
  5
302
  8
Q
 62
     5
  2
*D52
 10
4677.3206377841871
 20
-5089.9671041792981
 30
0.0
 11
4677.320637784188
 21
-5072.2329385353696
 31
0.0
 70
   128
 13
4640.5427252753107
 23
-5082.3757956782283
 33
0.0
 14
4655.7927252753107
 24
-5089.9671041792981
 34
0.0
 50
90.0
1001
ACAD
1000
DSTYLE
1002
{
1070
   287
1070
     0
1070
    41
1040
3.0
1070
    42
1040
1.0
1070
    43
1040
1.0
1070
    44
1040
1.0
1070
   140
1040
3.0
1070
   147
1040
1.0
1070
   172
1070
     0
1070
   178
1070
     5
1070
   271
1070
     1
1070
   288
1070
     1
1070
   289
1070
     0
1070
   340
1005
20
1002
}
  0
LINE
  5
310
  8
0
 10
4632.6427252753119
 20
-5106.1757956782294
 30
0.0
 11
4632.6427252753119
 21
-5114.4757956782278
 31
0.0
  0
LINE
  5
311
  8
0
 10
4640.8427252753108
 20
-5104.8757956782283
 30
0.0
 11
4640.8427252753108
 21
-5083.3757956782292
 31
0.0
  0
LINE
  5
312
  8
0
 10
4641.5427252753116
 20
-5104.8757956782283
 30
0.0
 11
4641.5427252753116
 21
-5097.8757956782283
 31
0.0
  0
LINE
  5
313
  8
0
 10
4665.0927252753118
 20
-5095.7863593167076
 30
0.0
 11
4665.0927252753118
 21
-5101.0907494946377
 31
0.0
  0
LINE
  5
314
  8
0
 10
4665.7927252753116
 20
-5095.4198268471009
 30
0.0
 11
4665.7927252753116
 21
-5101.0890538657732
 31
0.0
  0
LINE
  5
315
  8
0
 10
4655.8832777525531
 20
-5108.4508555286366
 30
0.0
 11
4664.0668428776762
 21
-5103.0055926567129
 31
0.0
  0
LINE
  5
316
  8
0
 10
4656.2172537548413
 20
-5109.0677355200487
 30
0.0
 11
4664.4546178001337
 21
-5103.5866753815226
 31
0.0
  0
DIMENSION
  5
317
  8
Q
 62
     5
  2
*D46
 10
4641.5427252753116
 20
-5158.8400269430713
 30
0.0
 11
4652.8998681324538
 21
-5156.3400269430713
 31
0.0
 70
     0
 13
4640.2927252753107
 23
-5121.3757956782283
 33
0.0
 14
4641.5427252753116
 24
-5104.8757956782283
 34
0.0
1001
ACAD
1000
DSTYLE
1002
{
1070
   287
1070
     0
1070
    41
1040
3.0
1070
    42
1040
1.0
1070
    43
1040
1.0
1070
    44
1040
1.0
1070
   140
1040
3.0
1070
   147
1040
1.0
1070
   172
1070
     0
1070
   178
1070
     5
1070
   288
1070
     1
1070
   289
1070
     0
1070
   340
1005
20
1002
}
  0
LINE
  5
325
  8
0
 10
4633.3427252753108
 20
-5114.8757956782283
 30
0.0
 11
4633.3427252753108
 21
-5121.3757956782283
 31
0.0
  0
LINE
  5
326
  8
0
 10
4640.2927252753107
 20
-5114.8757956782283
 30
0.0
 11
4640.2927252753107
 21
-5121.3757956782283
 31
0.0
  0
LINE
  5
327
  8
0
 10
4639.5927252753118
 20
-5114.8757956782283
 30
0.0
 11
4639.5927252753118
 21
-5121.3757956782283
 31
0.0
  0
ARC
  5
328
  8
0
 10
4632.3427252753118
 20
-5121.3757956782283
 30
0.0
 40
0.3
 50
270.0
 51
0.0000000000006743
  0
ARC
  5
329
  8
0
 10
4633.642725275311
 20
-5121.3757956782283
 30
0.0
 40
0.3
 50
180.0000000000004
 51
270.0
  0
LINE
  5
32A
  8
0
 10
4633.642725275311
 20
-5121.6757956782276
 30
0.0
 11
4639.2927252753116
 21
-5121.6757956782276
 31
0.0
  0
ARC
  5
32B
  8
0
 10
4639.2927252753116
 20
-5121.3757956782283
 30
0.0
 40
0.3
 50
270.0
 51
0.0
  0
ARC
  5
32C
  8
0
 10
4639.2927252753116
 20
-5121.3757956782283
 30
0.0
 40
1.0
 50
270.0
 51
0.0
  0
ARC
  5
32D
  8
0
 10
4653.8285525827023
 20
-5106.1757956782294
 30
0.0
 40
1.0
 50
14.99999999999998
 51
89.999999999999673
  0
LINE
  5
32E
  8
0
 10
4633.642725275311
 20
-5105.8757956782292
 30
0.0
 11
4653.8285525827023
 21
-5105.8757956782292
 31
0.0
  0
ARC
  5
32F
  8
0
 10
4633.642725275311
 20
-5106.1757956782294
 30
0.0
 40
0.3
 50
90.0
 51
180.0000000000008
  0
ARC
  5
330
  8
0
 10
4633.642725275311
 20
-5113.575795678229
 30
0.0
 40
0.3
 50
180.0000000000008
 51
269.99999999999949
  0
ARC
  5
331
  8
0
 10
4633.642725275311
 20
-5114.8757956782283
 30
0.0
 40
0.3
 50
90.0
 51
180.00000000000051
  0
LINE
  5
332
  8
0
 10
4633.3427252753108
 20
-5106.1757956782294
 30
0.0
 11
4633.3427252753108
 21
-5113.575795678229
 31
0.0
  0
LINE
  5
333
  8
0
 10
4633.642725275311
 20
-5113.8757956782292
 30
0.0
 11
4639.2927252753116
 21
-5113.8757956782292
 31
0.0
  0
LINE
  5
334
  8
0
 10
4633.642725275311
 20
-5114.5757956782281
 30
0.0
 11
4639.2927252753116
 21
-5114.5757956782272
 31
0.0
  0
ARC
  5
335
  8
0
 10
4655.7170885000714
 20
-5108.2010933770607
 30
0.0
 40
0.3
 50
195.0000000000002
 51
303.63939932512272
  0
LINE
  5
336
  8
0
 10
4654.1183303305888
 20
-5106.0981499646969
 30
0.0
 11
4654.7513279285531
 21
-5108.460529161367
 31
0.0
  0
ARC
  5
337
  8
0
 10
4653.8285525827023
 20
-5106.1757956782294
 30
0.0
 40
0.3
 50
14.99999999999998
 51
89.999999999999943
  0
ARC
  5
338
  8
0
 10
4655.7172537548431
 20
-5108.2017101162646
 30
0.0
 40
1.0
 50
195.0000000000004
 51
307.27879865023908
  0
LINE
  5
339
  8
0
 10
4654.7944784089914
 20
-5105.9169766331261
 30
0.0
 11
4655.427310752184
 21
-5108.2787390905933
 31
0.0
  0
LINE
  5
33A
  8
0
 10
4641.8427252753118
 20
-5105.1757956782294
 30
0.0
 11
4653.1285525827016
 21
-5105.1757956782294
 31
0.0
  0
LINE
  5
33B
  8
0
 10
4633.642725275311
 20
-5105.1757956782276
 30
0.0
 11
4640.5427252753107
 21
-5105.1757956782294
 31
0.0
  0
ARC
  5
33C
  8
0
 10
4641.8427252753118
 20
-5104.8757956782283
 30
0.0
 40
0.3
 50
179.9999999999998
 51
269.99999999999972
  0
ARC
  5
33D
  8
0
 10
4640.5427252753107
 20
-5104.8757956782283
 30
0.0
 40
0.3
 50
269.99999999999972
 51
0.0
  0
ARC
  5
33E
  8
0
 10
4662.7927252753116
 20
-5101.0890538657732
 30
0.0
 40
3.0
 50
303.63939932512272
 51
359.99999999999972
  0
ARC
  5
33F
  8
0
 10
4662.7927252753116
 20
-5101.0907494946377
 30
0.0
 40
2.2999999999999989
 50
303.63939932512261
 51
0.0
  0
LINE
  5
340
  8
0
 10
4655.8188719981363
 20
-5090.6682457698698
 30
0.0
 11
4660.802357266226
 21
-5091.1042442356757
 31
0.0
  0
LINE
  5
341
  8
0
 10
4655.8798810180588
 20
-5089.970909481206
 30
0.0
 11
4661.2285039890494
 21
-5090.4388533566416
 31
0.0
  0
LINE
  5
342
  8
0
 10
4648.1677252753107
 20
-5093.5757956782281
 30
0.0
 11
4648.1677252753107
 21
-5096.5757956782281
 31
0.0
  0
LINE
  5
343
  8
0
 10
4648.8677252753114
 20
-5093.5757956782281
 30
0.0
 11
4648.8677252753114
 21
-5096.5757956782281
 31
0.0
  0
LINE
  5
344
  8
0
 10
4641.5427252753116
 20
-5096.5757956782281
 30
0.0
 11
4641.5427252753116
 21
-5083.3757956782292
 31
0.0
  0
LINE
  5
345
  8
0
 10
4641.8427252753118
 20
-5096.8757956782283
 30
0.0
 11
4647.8677252753123
 21
-5096.8757956782283
 31
0.0
  0
LINE
  5
346
  8
0
 10
4641.8427252753118
 20
-5097.5757956782281
 30
0.0
 11
4647.8677252753123
 21
-5097.5757956782281
 31
0.0
  0
ARC
  5
347
  8
0
 10
4641.8427252753118
 20
-5097.8757956782283
 30
0.0
 40
0.3
 50
90.000000000000327
 51
179.9999999999998
  0
ARC
  5
348
  8
0
 10
4641.8427252753118
 20
-5096.5757956782281
 30
0.0
 40
0.3
 50
179.9999999999998
 51
270.0000000000004
  0
ARC
  5
349
  8
0
 10
4647.8677252753123
 20
-5096.5757956782281
 30
0.0
 40
0.3
 50
270.00000000000028
 51
0.0
  0
ARC
  5
34A
  8
0
 10
4647.8677252753123
 20
-5096.5757956782281
 30
0.0
 40
1.0
 50
270.00000000000051
 51
0.0
  0
LINE
  5
34B
  8
0
 10
4641.5427252753116
 20
-5091.5757956782272
 30
0.0
 11
4641.5427252753116
 21
-5083.3757956782292
 31
0.0
  0
ARC
  5
34C
  8
0
 10
4655.7927252753107
 20
-5090.9671041792981
 30
0.0
 40
0.3
 50
85.0
 51
180.0
  0
LINE
  5
34D
  8
0
 10
4655.4927252753123
 20
-5090.9671041792981
 30
0.0
 11
4655.4927252753123
 21
-5092.2757956782289
 31
0.0
  0
LINE
  5
34E
  8
0
 10
4654.7927252753116
 20
-5090.9671041792981
 30
0.0
 11
4654.7927252753116
 21
-5092.2757956782289
 31
0.0
  0
LINE
  5
34F
  8
0
 10
4649.1677252753107
 20
-5093.2757956782289
 30
0.0
 11
4653.1285525827016
 21
-5093.2757956782289
 31
0.0
  0
LINE
  5
350
  8
0
 10
4654.4927252753123
 20
-5092.575795678229
 30
0.0
 11
4649.1677252753107
 21
-5092.575795678229
 31
0.0
  0
ARC
  5
351
  8
0
 10
4649.1677252753107
 20
-5093.5757956782281
 30
0.0
 40
0.3
 50
90.000000000000114
 51
180.0
  0
ARC
  5
352
  8
0
 10
4654.4927252753123
 20
-5092.2757956782289
 30
0.0
 40
0.3
 50
269.99999999999989
 51
0.0000000000010178
  0
ARC
  5
353
  8
0
 10
4649.1677252753107
 20
-5093.5757956782281
 30
0.0
 40
1.0
 50
89.999999999999872
 51
180.0
  0
ARC
  5
354
  8
0
 10
4655.7927252753107
 20
-5090.9671041792981
 30
0.0
 40
1.0
 50
85.0
 51
180.0000000000004
  0
ARC
  5
355
  8
0
 10
4654.4927252753123
 20
-5092.2757956782289
 30
0.0
 40
1.0
 50
270.0
 51
0.0
  0
LINE
  5
356
  8
0
 10
4633.642725275311
 20
-5083.075795678229
 30
0.0
 11
4640.0294307581507
 21
-5083.075795678229
 31
0.0
  0
LINE
  5
357
  8
0
 10
4635.9885179872863
 20
-5083.075795678229
 30
0.0
 11
4640.5427252753107
 21
-5083.075795678229
 31
0.0
  0
ARC
  5
358
  8
0
 10
4640.5427252753107
 20
-5083.3757956782292
 30
0.0
 40
0.3
 50
0.0
 51
90.0
  0
ARC
  5
359
  8
0
 10
4640.5427252753107
 20
-5083.3757956782292
 30
0.0
 40
1.0
 50
359.9999999999996
 51
90.0
  0
ARC
  5
35A
  8
0
 10
4660.392725275311
 20
-5095.7863593167076
 30
0.0
 40
4.7000000000000002
 50
0.0
 51
85.000000000000085
  0
ARC
  5
35B
  8
0
 10
4660.7927252753107
 20
-5095.4198268471009
 30
0.0
 40
5.0
 50
359.99999999999977
 51
85.0
  0
LINE
  5
35C
  8
0
 10
4653.8285525827023
 20
-5105.1757956782294
 30
0.0
 11
4653.8285525827023
 21
-5093.2757956782289
 31
0.0
  0
LINE
  5
35D
  8
0
 10
4653.1285525827016
 20
-5105.1757956782294
 30
0.0
 11
4653.1285525827016
 21
-5093.2757956782289
 31
0.0
  0
LINE
  5
35E
  8
0
 10
4653.8285525827023
 20
-5093.2757956782289
 30
0.0
 11
4654.4927252753123
 21
-5093.2757956782289
 31
0.0
  0
ARC
  5
35F
  8
0
 10
4633.642725275311
 20
-5106.1757956782294
 30
0.0
 40
1.000000000000727
 50
90.0
 51
134.42700400091991
  0
LINE
  5
360
  8
0
 10
4632.642725275311
 20
-5106.1757956782294
 30
0.0
 11
4632.6427252753119
 21
-5105.4829063733659
 31
0.0
  0
LINE
  5
361
  8
0
  6
CONTINUOUS
 10
4632.9427252753103
 20
-5083.075795678229
 30
0.0
 11
4632.9427252753103
 21
-5105.4616528353754
 31
0.0
  0
LINE
  5
362
  8
0
 10
4632.9427252753094
 20
-5083.075795678229
 30
0.0
 11
4633.642725275311
 21
-5083.075795678229
 31
0.0
  0
LINE
  5
363
  8
0
 10
4632.6427252753119
 20
-5114.575795678229
 30
0.0
 11
4632.6427252753119
 21
-5121.3757956782283
 31
0.0
  0
LINE
  5
364
  8
0
  6
CONTINUOUS
 10
4632.7927252753107
 20
-5083.075795678229
 30
0.0
 11
4632.7927252753107
 21
-5105.4616528353754
 31
0.0
  0
LINE
  5
365
  8
0
  6
CONTINUOUS
 10
4617.3167252753074
 20
-5083.0757956782272
 30
0.0
 11
4617.3167252753074
 21
-5122.3757956782283
 31
0.0
  0
LINE
  5
366
  8
0
  6
CONTINUOUS
 10
4617.0167252753072
 20
-5083.0757956782272
 30
0.0
 11
4617.0167252753072
 21
-5122.3757956782283
 31
0.0
  0
LINE
  5
367
  8
0
  6
CONTINUOUS
 10
4617.1667252753059
 20
-5082.3757956782283
 30
0.0
 11
4617.1667252753059
 21
-5122.3757956782283
 31
0.0
  0
DIMENSION
  5
368
  8
Q
 62
     5
  2
*D44
 10
4632.7927252753107
 20
-5073.8068521720352
 30
0.0
 11
4624.4642697482896
 21
-5073.8068521720352
 31
0.0
 70
   128
 13
4617.1667252753059
 23
-5082.3757956782283
 33
0.0
 14
4632.7927252753107
 24
-5083.075795678229
 34
0.0
1001
ACAD
1000
DSTYLE
1002
{
1070
   287
1070
     0
1070
    41
1040
3.0
1070
    42
1040
1.0
1070
    43
1040
1.0
1070
    44
1040
1.0
1070
   140
1040
3.0
1070
   147
1040
1.0
1070
   172
1070
     0
1070
   178
1070
     5
1070
   288
1070
     1
1070
   289
1070
     0
1070
   340
1005
20
1002
}
  0
ARC
  5
375
  8
0
 10
4639.2927252753116
 20
-5114.8757956782283
 30
0.0
 40
1.0
 50
0.0
 51
90.0
  0
ARC
  5
376
  8
0
 10
4639.2927252753116
 20
-5114.8757956782283
 30
0.0
 40
0.3000000000010914
 50
0.0
 51
90.0
  0
LINE
  5
377
  8
0
 10
4617.1667252753059
 20
-5102.3657956782299
 30
0.0
 11
4632.7927252753107
 21
-5105.4616528353754
 31
0.0
  0
LINE
  5
378
  8
0
 10
4617.1570080431002
 20
-5102.4148423437446
 30
0.0
 11
4632.6427252753119
 21
-5105.4829063733659
 31
0.0
  0
LINE
  5
379
  8
0
 10
4617.1764425075144
 20
-5102.3167490127153
 30
0.0
 11
4632.6427252753119
 21
-5105.3809626439133
 31
0.0
  0
LINE
  5
37A
  8
0
 10
4632.642725275311
 20
-5105.3809626439124
 30
0.0
 11
4632.6427252753092
 21
-5083.075795678229
 31
0.0
  0
LINE
  5
37B
  8
0
  6
CONTINUOUS
 10
4601.7867252753067
 20
-5083.0757956782272
 30
0.0
 11
4601.7867252753067
 21
-5122.3757956782283
 31
0.0
  0
LINE
  5
37C
  8
0
  6
CONTINUOUS
 10
4601.4867252753074
 20
-5083.0757956782272
 30
0.0
 11
4601.4867252753074
 21
-5122.3757956782283
 31
0.0
  0
LINE
  5
37D
  8
0
  6
CONTINUOUS
 10
4601.6367252753071
 20
-5082.3757956782283
 30
0.0
 11
4601.6367252753071
 21
-5122.3757956782283
 31
0.0
  0
INSERT
  5
37E
  8
Q
  2
*U107
 10
0.0
 20
0.0
 30
0.0
  0
ENDSEC
  0
EOF
